×

¿Problemas para descargar con Mozilla, EDGE? Deshabilita la opción "Abrir vinculos en una pestaña nueva" tal como lo muestra ésta imagen.

Landscape with Invisible Hand (2023) AMZN WEB-DL 1080p Latino

145 vistas

Información de Landscape with Invisible Hand (2023) AMZN WEB-DL 1080p Latino

Datos de la película

  • Calidad:
  • Audio: Español Latino AC3 5.1 WEB-DL - Ingles AC3 5.1 WEB-DL
  • Subtitulos: Español Latino SRT- FORZADOS SRT
  • Resolución: 1920x1080
  • Formato: MKV
  • Codec: H.264
  • Encoder: cinemaniahdd
  • Mediainfo: Clic para Mostrar Datos Ver
  • Landscape with Invisible Hand (2023) AMZN WEB-DL 1080p Latino [CNMNHDD].mkv
    Format                      : Matroska
    Format version              : Version 4
    File size                   : 8.26 GiB
    Duration                    : 1 h 46 min
    Overall bit rate            : 11.1 Mb/s
    Movie name                  : Paisaje Con Mano Invisible (2023) [1080p] - CinemaniaHDD.Net
    Encoded date                : UTC 2023-11-30 01:29:22
    Writing application         : mkvmerge v56.1.0 ('My Friend') 64-bit
    Writing library             : libebml v1.4.2 + libmatroska v1.6.4

    Video
    ID                          : 1
    Format                      : AVC
    Format/Info                 : Advanced Video Codec
    Format profile              : High@L4
    Format settings             : CABAC / 4 Ref Frames
    Format settings, CABAC      : Yes
    Format settings, Reference  : 4 frames
    Codec ID                    : V_MPEG4/ISO/AVC
    Duration                    : 1 h 46 min
    Bit rate mode               : Constant
    Bit rate                    : 9 157 kb/s
    Nominal bit rate            : 10 000 kb/s
    Width                       : 1 792 pixels
    Height                      : 1 080 pixels
    Display aspect ratio        : 5:3
    Frame rate mode             : Constant
    Frame rate                  : 23.976 (24000/1001) FPS
    Color space                 : YUV
    Chroma subsampling          : 4:2:0
    Bit depth                   : 8 bits
    Scan type                   : Progressive
    Bits/(Pixel*Frame)          : 0.197
    Stream size                 : 6.83 GiB (83%)
    Title                       : CinemaniaHDD
    Default                     : Yes
    Forced                      : No
    Color range                 : Limited
    Color primaries             : BT.709
    Transfer characteristics    : BT.709
    Matrix coefficients         : BT.709

    Audio #1
    ID                          : 2
    Format                      : AC-3
    Format/Info                 : Audio Coding 3
    Commercial name             : Dolby Digital
    Codec ID                    : A_AC3
    Duration                    : 1 h 46 min
    Bit rate mode               : Constant
    Bit rate                    : 640 kb/s
    Channel(s)                  : 6 channels
    Channel layout              : L R C LFE Ls Rs
    Sampling rate               : 48.0 kHz
    Frame rate                  : 31.250 FPS (1536 SPF)
    Compression mode            : Lossy
    Stream size                 : 489 MiB (6%)
    Title                       : Español Latino [CinemaniaHDD]
    Language                    : Spanish
    Service kind                : Complete Main
    Default                     : Yes
    Forced                      : No

    Audio #2
    ID                          : 3
    Format                      : E-AC-3
    Format/Info                 : Enhanced AC-3
    Commercial name             : Dolby Digital Plus
    Codec ID                    : A_EAC3
    Duration                    : 1 h 46 min
    Bit rate mode               : Constant
    Bit rate                    : 640 kb/s
    Channel(s)                  : 6 channels
    Channel layout              : L R C LFE Ls Rs
    Sampling rate               : 48.0 kHz
    Frame rate                  : 31.250 FPS (1536 SPF)
    Compression mode            : Lossy
    Stream size                 : 489 MiB (6%)
    Title                       : Español latino / E-AC3 [CinemaniaHDD]
    Language                    : Spanish
    Service kind                : Complete Main
    Default                     : No
    Forced                      : No

    Audio #3
    ID                          : 4
    Format                      : E-AC-3
    Format/Info                 : Enhanced AC-3
    Commercial name             : Dolby Digital Plus
    Codec ID                    : A_EAC3
    Duration                    : 1 h 46 min
    Bit rate mode               : Constant
    Bit rate                    : 640 kb/s
    Channel(s)                  : 6 channels
    Channel layout              : L R C LFE Ls Rs
    Sampling rate               : 48.0 kHz
    Frame rate                  : 31.250 FPS (1536 SPF)
    Compression mode            : Lossy
    Stream size                 : 489 MiB (6%)
    Title                       : Inglés [CinemaniaHDD]
    Language                    : English
    Service kind                : Complete Main
    Default                     : No
    Forced                      : No

    Text #1
    ID                          : 5
    Format                      : UTF-8
    Codec ID                    : S_TEXT/UTF8
    Codec ID/Info               : UTF-8 Plain Text
    Duration                    : 1 h 37 min
    Bit rate                    : 3 b/s
    Count of elements           : 76
    Stream size                 : 2.69 KiB (0%)
    Title                       : Forzados [CinemaniaHDD]
    Language                    : Spanish
    Default                     : Yes
    Forced                      : Yes

    Text #2
    ID                          : 6
    Format                      : UTF-8
    Codec ID                    : S_TEXT/UTF8
    Codec ID/Info               : UTF-8 Plain Text
    Duration                    : 1 h 43 min
    Bit rate                    : 57 b/s
    Count of elements           : 1219
    Stream size                 : 43.9 KiB (0%)
    Title                       : Español Latino [CinemaniaHDD]
    Language                    : Spanish
    Default                     : No
    Forced                      : No

    Text #3
    ID                          : 7
    Format                      : UTF-8
    Codec ID                    : S_TEXT/UTF8
    Codec ID/Info               : UTF-8 Plain Text
    Duration                    : 1 h 39 min
    Bit rate                    : 69 b/s
    Count of elements           : 1744
    Stream size                 : 50.4 KiB (0%)
    Title                       : Inglés [CinemaniaHDD]
    Language                    : English
    Default                     : No
    Forced                      : No

     

  • Peso: 8.26 GiB

Sinopsis

Adam es un artista adolescente que llega a la mayoría de edad después de una invasión alienígena. Los Vuvv, una especie extraterrestre hiperinteligente, traen una tecnología maravillosa a la Tierra, pero solo los más ricos pueden permitirse disponer de ella. El resto de la humanidad, con unos medios de vida ahora obsoletos, tienen que ganar dinero en la industria del turismo. En el caso de Adam y su incipiente interés amoroso, Chloe, eso supone transmitir en directo su cortejo para diversión de los Vuvv, que encuentra el amor humano exótico e interesante. Cuando el plan de Adam y Chloe fracasa, Adam y su madre tienen que encontrar la salida a una burocracia alienígena cada vez más aterradora.

Ficha técnica

Video trailer de la película

Enlaces de descarga

Rip de Bluray

Descargar Landscape with Invisible Hand (2023) AMZN WEB-DL 1080p Latino




Aportes de DPeliculasHDmega la pass es:dpeliculashdmega.org Aportes de CinemaniaHD la pass es:cinemaniahdd.com Aportes recientes:cinemaniahdd.net
Guardado en : Ciencia ficción , Comedia

Películas relacionadas

descargar Landscape with Invisible Hand (2023) AMZN WEB-DL 1080p Latino 1080p gratis, Landscape with Invisible Hand (2023) AMZN WEB-DL 1080p Latino mega 1 link, Landscape with Invisible Hand (2023) AMZN WEB-DL 1080p Latino pelicula completa, descargar Landscape with Invisible Hand (2023) AMZN WEB-DL 1080p Latino gratis en mega.

Landscape with Invisible Hand (2023) AMZN WEB-DL 1080p Latino pelicula full hd, Landscape with Invisible Hand (2023) AMZN WEB-DL 1080p Latino mega latino, Landscape with Invisible Hand (2023) AMZN WEB-DL 1080p Latino 4k latino, Landscape with Invisible Hand (2023) AMZN WEB-DL 1080p Latino pelicula completa, Landscape with Invisible Hand (2023) AMZN WEB-DL 1080p Latino descargar gratis, descargar Landscape with Invisible Hand (2023) AMZN WEB-DL 1080p Latino pelicula latino, Landscape with Invisible Hand (2023) AMZN WEB-DL 1080p Latino 1 link mega, Landscape with Invisible Hand (2023) AMZN WEB-DL 1080p Latino 1 link google drive, Landscape with Invisible Hand (2023) AMZN WEB-DL 1080p Latino hd 1080p latino.
Comentarios 0