×

¿Problemas para descargar con Mozilla, EDGE? Deshabilita la opción "Abrir vinculos en una pestaña nueva" tal como lo muestra ésta imagen.

Land (2021) AMZN WebDL 1080p Latino

383 vistas

Información de Land (2021) AMZN WebDL 1080p Latino

Datos de la película

  • Calidad: WEBDL
  • Audio: Español Latino AC3 2.0 DVD - Ingles AC3 5.1 AMAZON
  • Subtitulos: Español Latino SRT- FORZADOS SRT
  • Resolución: 1792x1080p
  • Formato: MKV
  • Codec: H.264
  • Encoder: CinemaniaHD
  • Mediainfo: Clic para Mostrar Datos Ver
  • Land (2021) WEB-DL AMZN 1080p Latino.mkv
    Format                      : Matroska
    Format version              : Version 4
    File size                   : 5.12 GiB
    Duration                    : 1 h 29 min
    Overall bit rate            : 8 206 kb/s
    Movie name                  : Land (2021) WEB-DL AMZN 1080p Latino
    Encoded date                : UTC 2021-04-30 18:18:05
    Writing application         : mkvmerge v56.1.0 ('My Friend') 64-bit
    Writing library             : libebml v1.4.2 + libmatroska v1.6.4 / Lavf58.29.100

    Video
    ID                          : 1
    Format                      : AVC
    Format/Info                 : Advanced Video Codec
    Format profile              : High@L4
    Format settings             : CABAC / 4 Ref Frames
    Format settings, CABAC      : Yes
    Format settings, Reference  : 4 frames
    Codec ID                    : V_MPEG4/ISO/AVC
    Duration                    : 1 h 29 min
    Bit rate mode               : Constant
    Bit rate                    : 7 180 kb/s
    Nominal bit rate            : 10 000 kb/s
    Width                       : 1 792 pixels
    Height                      : 1 080 pixels
    Display aspect ratio        : 5:3
    Frame rate mode             : Constant
    Frame rate                  : 23.976 (24000/1001) FPS
    Color space                 : YUV
    Chroma subsampling          : 4:2:0
    Bit depth                   : 8 bits
    Scan type                   : Progressive
    Bits/(Pixel*Frame)          : 0.155
    Stream size                 : 4.48 GiB (87%)
    Title                       : CinemaniaHDD
    Default                     : Yes
    Forced                      : No
    Color range                 : Limited
    Color primaries             : BT.709
    Transfer characteristics    : BT.709
    Matrix coefficients         : BT.709

    Audio #1
    ID                          : 2
    Format                      : AC-3
    Format/Info                 : Audio Coding 3
    Commercial name             : Dolby Digital
    Codec ID                    : A_AC3
    Duration                    : 1 h 29 min
    Bit rate mode               : Constant
    Bit rate                    : 384 kb/s
    Channel(s)                  : 6 channels
    Channel layout              : L R C LFE Ls Rs
    Sampling rate               : 48.0 kHz
    Frame rate                  : 31.250 FPS (1536 SPF)
    Compression mode            : Lossy
    Stream size                 : 245 MiB (5%)
    Title                       : Español latino [CinemaniaHDD]
    Language                    : Spanish
    Service kind                : Complete Main
    Default                     : Yes
    Forced                      : No

    Audio #2
    ID                          : 3
    Format                      : E-AC-3
    Format/Info                 : Enhanced AC-3
    Commercial name             : Dolby Digital Plus
    Codec ID                    : A_EAC3
    Duration                    : 1 h 29 min
    Bit rate mode               : Constant
    Bit rate                    : 640 kb/s
    Channel(s)                  : 6 channels
    Channel layout              : L R C LFE Ls Rs
    Sampling rate               : 48.0 kHz
    Frame rate                  : 31.250 FPS (1536 SPF)
    Compression mode            : Lossy
    Stream size                 : 409 MiB (8%)
    Title                       : Inglés [CinemaniaHDD]
    Language                    : English
    Service kind                : Complete Main
    Default                     : No
    Forced                      : No

    Text #1
    ID                          : 4
    Format                      : UTF-8
    Codec ID                    : S_TEXT/UTF8
    Codec ID/Info               : UTF-8 Plain Text
    Duration                    : 1 h 10 min
    Bit rate                    : 0 b/s
    Count of elements           : 5
    Stream size                 : 146 Bytes (0%)
    Title                       : Forzados [CinemaniaHDD]
    Language                    : Spanish
    Default                     : Yes
    Forced                      : No

    Text #2
    ID                          : 5
    Format                      : UTF-8
    Codec ID                    : S_TEXT/UTF8
    Codec ID/Info               : UTF-8 Plain Text
    Duration                    : 1 h 24 min
    Bit rate                    : 19 b/s
    Count of elements           : 432
    Stream size                 : 12.3 KiB (0%)
    Title                       : Español latino [CinemaniaHDD]
    Language                    : Spanish
    Default                     : No
    Forced                      : No

  • Peso: 5.12 GiB

Sinopsis

Descargar Land (2021) AMZN WebDL 1080p Latino. Cuando su vida se ve sacudida por una serie de inesperados acontecimientos, Edee pierde la habilidad de conectar con el mundo y la gente que una vez la rodeó. Hastiada de su vida, decide retirarse a un bosque en las Montañas Rocosas con unos pocos víveres. Pese a que la belleza de su nuevo hogar es incontestable, Edee sufre para lograr ajustarse a su nueva vida y especialmente al duro invierno que le espera a la vuelta de la esquina. Un día es descubierta al borde de la muerte por un cazador local que logra salvarla, pero su mayor reto llegará cuando trate de volver a aprender a vivir de nuevo.

Ficha técnica

  • Titulo original: Land
  • Fecha de lanzamiento: 12-02-2021 (United States of America)
  • Director: Robin Wright
  • Género: Drama

Video trailer de la película

Enlaces de descarga

Rip de Bluray

Descargar Land (2021) AMZN WebDL 1080p Latino




Aportes de DPeliculasHDmega la pass es:dpeliculashdmega.org Aportes de CinemaniaHD la pass es:cinemaniahdd.com Aportes recientes:cinemaniahdd.net
Guardado en : Drama

Películas relacionadas

descargar Land (2021) AMZN WebDL 1080p Latino WEBDL 1080p gratis, Land (2021) AMZN WebDL 1080p Latino WEBDL mega 1 link, Land (2021) AMZN WebDL 1080p Latino WEBDL pelicula completa, descargar Land (2021) AMZN WebDL 1080p Latino WEBDL gratis en mega.

Land (2021) AMZN WebDL 1080p Latino pelicula full hd, Land (2021) AMZN WebDL 1080p Latino mega latino, Land (2021) AMZN WebDL 1080p Latino 4k latino, Land (2021) AMZN WebDL 1080p Latino pelicula completa, Land (2021) AMZN WebDL 1080p Latino descargar gratis, descargar Land (2021) AMZN WebDL 1080p Latino pelicula latino, Land (2021) AMZN WebDL 1080p Latino 1 link mega, Land (2021) AMZN WebDL 1080p Latino 1 link google drive, Land (2021) AMZN WebDL 1080p Latino hd 1080p latino.
Comentarios 0