×

¿Problemas para descargar con Mozilla, EDGE? Deshabilita la opción "Abrir vinculos en una pestaña nueva" tal como lo muestra ésta imagen.

Land (2021) HD 1080p Latino

219 vistas

Información de Land (2021) HD 1080p Latino

Datos de la película

  • Calidad: 1080p
  • Audio: Español Latino AC3 5.1 BLURAY - Ingles AC3 5.1 BLURAY
  • Subtitulos: Español Latino SRT- FORZADOS SRT
  • Resolución: 1800x1080
  • Formato: MKV
  • Codec: H.264
  • Encoder: cinemaniahdd
  • Mediainfo: Clic para Mostrar Datos Ver
  • Land (2021) HD 1080p Latino [CNMNHDD].mkv
    Format                      : Matroska
    Format version              : Version 4
    File size                   : 2.75 GiB
    Duration                    : 1 h 28 min
    Overall bit rate            : 4 430 kb/s
    Movie name                  : Land (2021) HD - CinemaniaHDD.Net
    Encoded date                : UTC 2021-05-08 19:21:27
    Writing application         : mkvmerge v56.1.0 ('My Friend') 64-bit
    Writing library             : libebml v1.4.2 + libmatroska v1.6.4

    Video
    ID                          : 1
    Format                      : AVC
    Format/Info                 : Advanced Video Codec
    Format profile              : Main@L4
    Format settings             : CABAC / 4 Ref Frames
    Format settings, CABAC      : Yes
    Format settings, Reference  : 4 frames
    Codec ID                    : V_MPEG4/ISO/AVC
    Duration                    : 1 h 28 min
    Bit rate                    : 3 500 kb/s
    Width                       : 1 800 pixels
    Height                      : 1 080 pixels
    Display aspect ratio        : 5:3
    Frame rate mode             : Constant
    Frame rate                  : 23.976 (24000/1001) FPS
    Color space                 : YUV
    Chroma subsampling          : 4:2:0
    Bit depth                   : 8 bits
    Scan type                   : Progressive
    Bits/(Pixel*Frame)          : 0.075
    Stream size                 : 2.07 GiB (75%)
    Title                       : CinemaniaHDD
    Writing library             : x264 core 157 r2935 545de2f
    Encoding settings           : cabac=1 / ref=4 / deblock=1:0:0 / analyse=0x1:0x111 / me=hex / subme=8 / psy=1 / psy_rd=1.00:0.00 / mixed_ref=1 / me_range=16 / chroma_me=1 / trellis=2 / 8x8dct=0 / cqm=0 / deadzone=21,11 / fast_pskip=1 / chroma_qp_offset=-2 / threads=24 / lookahead_threads=4 / sliced_threads=0 / nr=0 / decimate=1 / interlaced=0 / bluray_compat=0 / constrained_intra=0 / bframes=3 / b_pyramid=2 / b_adapt=1 / b_bias=0 / direct=3 / weightb=1 / open_gop=0 / weightp=2 / keyint=240 / keyint_min=24 / scenecut=40 / intra_refresh=0 / rc_lookahead=50 / rc=abr / mbtree=1 / bitrate=3500 / ratetol=1.0 / qcomp=0.60 / qpmin=0 / qpmax=69 / qpstep=4 / vbv_maxrate=20000 / vbv_bufsize=25000 / nal_hrd=none / filler=0 / ip_ratio=1.40 / aq=1:1.00
    Default                     : Yes
    Forced                      : No
    Color range                 : Limited
    Color primaries             : BT.709
    Transfer characteristics    : BT.709
    Matrix coefficients         : BT.709

    Audio #1
    ID                          : 2
    Format                      : AC-3
    Format/Info                 : Audio Coding 3
    Commercial name             : Dolby Digital
    Codec ID                    : A_AC3
    Duration                    : 1 h 28 min
    Bit rate mode               : Constant
    Bit rate                    : 640 kb/s
    Channel(s)                  : 6 channels
    Channel layout              : L R C LFE Ls Rs
    Sampling rate               : 48.0 kHz
    Frame rate                  : 31.250 FPS (1536 SPF)
    Compression mode            : Lossy
    Delay relative to video     : -5 ms
    Stream size                 : 407 MiB (14%)
    Title                       : Español latino [CinemaniaHDD]
    Language                    : Spanish
    Service kind                : Complete Main
    Default                     : Yes
    Forced                      : No

    Audio #2
    ID                          : 3
    Format                      : AC-3
    Format/Info                 : Audio Coding 3
    Commercial name             : Dolby Digital
    Codec ID                    : A_AC3
    Duration                    : 1 h 28 min
    Bit rate mode               : Constant
    Bit rate                    : 448 kb/s
    Channel(s)                  : 6 channels
    Channel layout              : L R C LFE Ls Rs
    Sampling rate               : 48.0 kHz
    Frame rate                  : 31.250 FPS (1536 SPF)
    Compression mode            : Lossy
    Delay relative to video     : -5 ms
    Stream size                 : 285 MiB (10%)
    Title                       : Inglés [CinemaniaHDD]
    Language                    : English
    Service kind                : Complete Main
    Default                     : No
    Forced                      : No

    Text #1
    ID                          : 4
    Format                      : UTF-8
    Codec ID                    : S_TEXT/UTF8
    Codec ID/Info               : UTF-8 Plain Text
    Duration                    : 1 h 10 min
    Bit rate                    : 0 b/s
    Count of elements           : 5
    Stream size                 : 146 Bytes (0%)
    Title                       : Forzados [CinemaniaHDD]
    Language                    : Spanish
    Default                     : Yes
    Forced                      : Yes

    Text #2
    ID                          : 5
    Format                      : UTF-8
    Codec ID                    : S_TEXT/UTF8
    Codec ID/Info               : UTF-8 Plain Text
    Duration                    : 1 h 24 min
    Bit rate                    : 19 b/s
    Count of elements           : 432
    Stream size                 : 12.3 KiB (0%)
    Title                       : Español latino [CinemaniaHDD]
    Language                    : Spanish
    Default                     : No
    Forced                      : No

    Menu
    00:00:00.000                : Capítulo 01
    00:06:36.729                : Capítulo 02
    00:11:17.301                : Capítulo 03
    00:14:57.313                : Capítulo 04
    00:20:39.529                : Capítulo 05
    00:23:53.140                : Capítulo 06
    00:28:37.340                : Capítulo 07
    00:32:24.943                : Capítulo 08
    00:37:08.851                : Capítulo 09
    00:39:08.721                : Capítulo 10
    00:45:22.803                : Capítulo 11
    00:47:51.034                : Capítulo 12
    00:53:32.459                : Capítulo 13
    00:59:18.513                : Capítulo 14
    01:01:19.717                : Capítulo 15
    01:07:35.593                : Capítulo 16
    01:11:07.137                : Capítulo 17
    01:17:13.337                : Capítulo 18
    01:23:09.776                : Capítulo 19
    01:24:27.854                : Capítulo 20

     

  • Peso: 2.75 GiB

Sinopsis

Cuando su vida se ve sacudida por una serie de inesperados acontecimientos, Edee pierde la habilidad de conectar con el mundo y la gente que una vez la rodeó. Hastiada de su vida, decide retirarse a un bosque en las Montañas Rocosas con unos pocos víveres. Pese a que la belleza de su nuevo hogar es incontestable, Edee sufre para lograr ajustarse a su nueva vida y especialmente al duro invierno que le espera a la vuelta de la esquina. Un día es descubierta al borde de la muerte por un cazador local que logra salvarla, pero su mayor reto llegará cuando trate de volver a aprender a vivir de nuevo.

Ficha técnica

  • Titulo original: Land
  • Fecha de lanzamiento: 12-02-2021 (United States of America)
  • Director: Robin Wright
  • Género: Drama

Video trailer de la película

Enlaces de descarga

Rip de Bluray

Descargar Land (2021) HD 1080p Latino




Aportes de DPeliculasHDmega la pass es:dpeliculashdmega.org Aportes de CinemaniaHD la pass es:cinemaniahdd.com
Guardado en : Drama

Películas relacionadas

descargar Land (2021) HD 1080p Latino 1080p 1080p gratis, Land (2021) HD 1080p Latino 1080p mega 1 link, Land (2021) HD 1080p Latino 1080p pelicula completa, descargar Land (2021) HD 1080p Latino 1080p gratis en mega.

Land (2021) HD 1080p Latino pelicula full hd, Land (2021) HD 1080p Latino mega latino, Land (2021) HD 1080p Latino 4k latino, Land (2021) HD 1080p Latino pelicula completa, Land (2021) HD 1080p Latino descargar gratis, descargar Land (2021) HD 1080p Latino pelicula latino, Land (2021) HD 1080p Latino 1 link mega, Land (2021) HD 1080p Latino 1 link google drive, Land (2021) HD 1080p Latino hd 1080p latino.
Comentarios 0