×

¿Problemas para descargar con Mozilla, EDGE? Deshabilita la opción "Abrir vinculos en una pestaña nueva" tal como lo muestra ésta imagen.

La vuelta al mundo en 80 días (2004) REMUX 1080p Latino – CMHDD

293 vistas

Información de La vuelta al mundo en 80 días (2004) REMUX 1080p Latino – CMHDD

Datos de la película

  • Calidad: Full 1080p
  • Audio: Se especifica abajo de la Sinopsis
  • Subtitulos: Español Latino SRT
  • Resolución: 1920x1080p
  • Formato: MKV
  • Codec: H.264
  • Encoder: Dracarys
  • Mediainfo: Clic para Mostrar Datos Ver
  • Format                      : Matroska
    Format version              : Version 4
    File size                   : 29.2 GiB
    Duration                    : 2 h 0 min
    Overall bit rate mode       : Variable
    Overall bit rate            : 34.7 Mb/s
    Movie name                  : La vuelta al mundo en 80 días (2004) REMUX 1080p Latino - CMHDD
    Encoded date                : UTC 2020-06-24 20:51:39
    Writing application         : mkvmerge v46.0.0 ('No Deeper Escape') 64-bit
    Writing library             : libebml v1.3.10 + libmatroska v1.5.2

    Video
    ID                          : 1
    Format                      : AVC
    Format/Info                 : Advanced Video Codec
    Format profile              : High@L4.1
    Format settings             : CABAC / 4 Ref Frames
    Format settings, CABAC      : Yes
    Format settings, Reference  : 4 frames
    Codec ID                    : V_MPEG4/ISO/AVC
    Duration                    : 2 h 0 min
    Bit rate mode               : Constant
    Bit rate                    : 31.3 Mb/s
    Nominal bit rate            : 33.0 Mb/s
    Width                       : 1 920 pixels
    Height                      : 1 080 pixels
    Display aspect ratio        : 16:9
    Frame rate mode             : Constant
    Frame rate                  : 23.976 (24000/1001) FPS
    Color space                 : YUV
    Chroma subsampling          : 4:2:0
    Bit depth                   : 8 bits
    Scan type                   : Progressive
    Bits/(Pixel*Frame)          : 0.629
    Stream size                 : 26.2 GiB (90%)
    Default                     : Yes
    Forced                      : No
    Color range                 : Limited
    Color primaries             : BT.709
    Transfer characteristics    : BT.709
    Matrix coefficients         : BT.709

    Audio #1
    ID                          : 2
    Format                      : AC-3
    Format/Info                 : Audio Coding 3
    Commercial name             : Dolby Digital
    Codec ID                    : A_AC3
    Duration                    : 1 h 59 min
    Bit rate mode               : Constant
    Bit rate                    : 640 kb/s
    Channel(s)                  : 6 channels
    Channel layout              : L R C LFE Ls Rs
    Sampling rate               : 48.0 kHz
    Frame rate                  : 31.250 FPS (1536 SPF)
    Compression mode            : Lossy
    Stream size                 : 549 MiB (2%)
    Language                    : Spanish
    Service kind                : Complete Main
    Default                     : No
    Forced                      : No

    Audio #2
    ID                          : 3
    Format                      : E-AC-3
    Format/Info                 : Enhanced AC-3
    Commercial name             : Dolby Digital Plus
    Codec ID                    : A_EAC3
    Duration                    : 1 h 59 min
    Bit rate mode               : Constant
    Bit rate                    : 640 kb/s
    Channel(s)                  : 6 channels
    Channel layout              : L R C LFE Ls Rs
    Sampling rate               : 48.0 kHz
    Frame rate                  : 31.250 FPS (1536 SPF)
    Compression mode            : Lossy
    Stream size                 : 549 MiB (2%)
    Language                    : Spanish
    Service kind                : Complete Main
    Default                     : Yes
    Forced                      : No

    Audio #3
    ID                          : 4
    Format                      : MLP FBA
    Format/Info                 : Meridian Lossless Packing FBA
    Commercial name             : Dolby TrueHD
    Codec ID                    : A_TRUEHD
    Duration                    : 2 h 0 min
    Bit rate mode               : Variable
    Bit rate                    : 1 499 kb/s
    Maximum bit rate            : 2 574 kb/s
    Channel(s)                  : 6 channels
    Channel layout              : L R C LFE Ls Rs
    Sampling rate               : 48.0 kHz
    Frame rate                  : 1 200.000 FPS (40 SPF)
    Compression mode            : Lossless
    Stream size                 : 1.26 GiB (4%)
    Language                    : English
    Default                     : No
    Forced                      : No

    Audio #4
    ID                          : 5
    Format                      : AC-3
    Format/Info                 : Audio Coding 3
    Commercial name             : Dolby Digital
    Codec ID                    : A_AC3
    Duration                    : 2 h 0 min
    Bit rate mode               : Constant
    Bit rate                    : 640 kb/s
    Channel(s)                  : 6 channels
    Channel layout              : L R C LFE Ls Rs
    Sampling rate               : 48.0 kHz
    Frame rate                  : 31.250 FPS (1536 SPF)
    Compression mode            : Lossy
    Stream size                 : 550 MiB (2%)
    Language                    : English
    Service kind                : Complete Main
    Default                     : No
    Forced                      : No

    Text
    ID                          : 6
    Format                      : UTF-8
    Codec ID                    : S_TEXT/UTF8
    Codec ID/Info               : UTF-8 Plain Text
    Duration                    : 1 h 52 min
    Bit rate                    : 54 b/s
    Count of elements           : 1323
    Stream size                 : 44.8 KiB (0%)
    Language                    : Spanish
    Default                     : No
    Forced                      : No

  • Peso: 29.2 GiB

Sinopsis

Phileas Fogg, un excéntrico inventor londinense, acaba de descubrir los secretos del vuelo aéreo, la electricidad, y hasta los patines en línea, pero la sociedad victoriana le toma por demente. Desesperado por ser tomado en serio, Fogg reta a Lord Kelvin, cabeza visible de la Real Academia de las Ciencias, mediante una increíble apuesta: afirma que será capaz de circunnavegar el globo terráqueo en menos de 80 días. Acompañado de su ayuda de cámara Passepartout y Monique, la artista francesa en busca de aventuras, Fogg se embarca en una trepidante y frenética carrera alrededor del mundo que les llevará por tierra, mar y aire hasta los lugares más exóticos del planeta.

 

 

Latino: E-AC3 + AC3 5.1  AMAZON  –  Ingles: TrueHD + AC3 5.1 BluRay

Ficha técnica

Video trailer de la película

Enlaces de descarga

Rip de Bluray

Descargar La vuelta al mundo en 80 días (2004) REMUX 1080p Latino – CMHDD




Aportes de DPeliculasHDmega la pass es:dpeliculashdmega.org Aportes de CinemaniaHD la pass es:cinemaniahdd.com
Guardado en : Acción , Aventura , Comedia , Remux

Películas relacionadas

  • Zola (2020) HD 1080p Latino

    Zola (2020) HD 1080p Latino

    2020
    Zola (2020) HD 1080p Latino

    1h 26m 2020

    Descargar Zola (2020) HD 1080p Latino. Una camarera accede a acompañar a una bailarina exótica, su...

    Director: Sheri Davani

    Género: Comedia

    Actores: Ts Madison

  • Zola (2020) PLACEBO Full HD 1080p Latino

    Zola (2020) PLACEBO Full HD 1080p Latino

    2020
    Zola (2020) PLACEBO Full HD 1080p Latino

    1h 26m 2020

    Descargar Zola (2020) PLACEBO Full HD 1080p Latino. Una camarera accede a acompañar a una bailarina...

    Director: Sheri Davani

    Género: Comedia

    Actores: Ts Madison

  • Zola (2020) REMUX 1080p Latino

    Zola (2020) REMUX 1080p Latino

    2020
    Zola (2020) REMUX 1080p Latino

    1h 26m 2020

    Descargar Zola (2020) REMUX 1080p Latino. Una camarera accede a acompañar a una bailarina exótica,...

    Director: Sheri Davani

    Género: Comedia

    Actores: Ts Madison

descargar La vuelta al mundo en 80 días (2004) REMUX 1080p Latino – CMHDD Full 1080p 1080p gratis, La vuelta al mundo en 80 días (2004) REMUX 1080p Latino – CMHDD Full 1080p mega 1 link, La vuelta al mundo en 80 días (2004) REMUX 1080p Latino – CMHDD Full 1080p pelicula completa, descargar La vuelta al mundo en 80 días (2004) REMUX 1080p Latino – CMHDD Full 1080p gratis en mega.

La vuelta al mundo en 80 días (2004) REMUX 1080p Latino – CMHDD pelicula full hd, La vuelta al mundo en 80 días (2004) REMUX 1080p Latino – CMHDD mega latino, La vuelta al mundo en 80 días (2004) REMUX 1080p Latino – CMHDD 4k latino, La vuelta al mundo en 80 días (2004) REMUX 1080p Latino – CMHDD pelicula completa, La vuelta al mundo en 80 días (2004) REMUX 1080p Latino – CMHDD descargar gratis, descargar La vuelta al mundo en 80 días (2004) REMUX 1080p Latino – CMHDD pelicula latino, La vuelta al mundo en 80 días (2004) REMUX 1080p Latino – CMHDD 1 link mega, La vuelta al mundo en 80 días (2004) REMUX 1080p Latino – CMHDD 1 link google drive, La vuelta al mundo en 80 días (2004) REMUX 1080p Latino – CMHDD hd 1080p latino.
Comentarios 0