×

¿Problemas para descargar con Mozilla, EDGE? Deshabilita la opción "Abrir vinculos en una pestaña nueva" tal como lo muestra ésta imagen.

La Vieja Guardia (2020) 4K UHD SDR Web-DL Latino

509 vistas

Información de La Vieja Guardia (2020) 4K UHD SDR Web-DL Latino

Datos de la película

  • Calidad: 4K UHD
  • Audio: Español Latino AC3 5.1 Netflix - Ingles AC3 5.1 Netflix
  • Subtitulos: Español Latino SRT - Ingles SRT
  • Resolución: 3840x1608p
  • Formato: MKV
  • Codec: HEVC
  • Encoder: CinemaniaHDD
  • Mediainfo: Clic para Mostrar Datos Ver
  • La Vieja Guardia (2020) 4K UHD SDR Web-DL Latino..mkv
    Format                      : Matroska
    Format version              : Version 4
    File size                   : 28.6 GiB
    Duration                    : 2 h 5 min
    Overall bit rate            : 32.7 Mb/s
    Movie name                  : The Old Guard (2020) CinemaniaHDD.Net
    Encoded date                : UTC 2020-07-11 15:12:45
    Writing application         : mkvmerge v46.0.0 ('No Deeper Escape') 64-bit
    Writing library             : libebml v1.3.10 + libmatroska v1.5.2
    Attachments                 : CINEMANIAHD.png

    Video
    ID                          : 1
    Format                      : HEVC
    Format/Info                 : High Efficiency Video Coding
    Format profile              : Main 10@L5.1@High
    Codec ID                    : V_MPEGH/ISO/HEVC
    Duration                    : 2 h 4 min
    Bit rate                    : 31.8 Mb/s
    Width                       : 3 840 pixels
    Height                      : 1 608 pixels
    Display aspect ratio        : 2.40:1
    Frame rate mode             : Constant
    Frame rate                  : 24.000 FPS
    Color space                 : YUV
    Chroma subsampling          : 4:2:0
    Bit depth                   : 10 bits
    Bits/(Pixel*Frame)          : 0.215
    Stream size                 : 27.6 GiB (96%)
    Title                       : Web 2160p HDR [CinemaniaHDD]
    Writing library             : x265 3.0_Au+4-dcbec33bfb0f:[Windows][GCC 8.2.1][64 bit] 10bit
    Encoding settings           : cpuid=1111039 / frame-threads=4 / numa-pools=28 / wpp / no-pmode / no-pme / no-psnr / no-ssim / log-level=2 / input-csp=1 / input-res=3840x1608 / interlace=0 / total-frames=179239 / level-idc=51 / high-tier=1 / uhd-bd=0 / ref=5 / no-allow-non-conformance / repeat-headers / annexb / aud / hrd / info / hash=0 / no-temporal-layers / open-gop / min-keyint=24 / keyint=250 / gop-lookahead=0 / bframes=8 / b-adapt=2 / b-pyramid / bframe-bias=0 / rc-lookahead=40 / lookahead-slices=8 / scenecut=40 / radl=0 / no-splice / no-intra-refresh / ctu=64 / min-cu-size=8 / no-rect / no-amp / max-tu-size=32 / tu-inter-depth=4 / tu-intra-depth=4 / limit-tu=4 / rdoq-level=0 / dynamic-rd=0.00 / no-ssim-rd / signhide / no-tskip / nr-intra=0 / nr-inter=0 / no-constrained-intra / strong-intra-smoothing / max-merge=4 / limit-refs=3 / no-limit-modes / me=1 / subme=5 / merange=57 / temporal-mvp / weightp / weightb / no-analyze-src-pics / deblock=-3:-3 / no-sao / no-sao-non-deblock / rd=4 / no-early-skip / rskip / no-fast-intra / no-tskip-fast / no-cu-lossless / b-intra / no-splitrd-skip / rdpenalty=0 / psy-rd=2.00 / psy-rdoq=0.00 / no-rd-refine / no-lossless / cbqpoffs=0 / crqpoffs=0 / rc=crf / crf=19.0 / qcomp=0.60 / qpstep=4 / stats-write=0 / stats-read=0 / vbv-maxrate=160000 / vbv-bufsize=160000 / vbv-init=0.9 / crf-max=0.0 / crf-min=0.0 / ipratio=1.30 / pbratio=1.20 / aq-mode=1 / aq-strength=0.85 / no-cutree / zone-count=0 / no-strict-cbr / qg-size=32 / no-rc-grain / qpmax=69 / qpmin=0 / no-const-vbv / sar=1 / overscan=0 / videoformat=5 / range=0 / colorprim=1 / transfer=1 / colormatrix=1 / chromaloc=0 / display-window=0 / max-cll=0,0 / min-luma=0 / max-luma=1023 / log2-max-poc-lsb=8 / vui-timing-info / vui-hrd-info / slices=1 / no-opt-qp-pps / no-opt-ref-list-length-pps / no-multi-pass-opt-rps / scenecut-bias=0.05 / no-opt-cu-delta-qp / no-aq-motion / no-hdr / no-hdr-opt / no-dhdr10-opt / no-idr-recovery-sei / analysis-reuse-level=5 / scale-factor=0 / refine-intra=0 / refine-inter=0 / refine-mv=0 / refine-ctu-distortion=0 / no-limit-sao / ctu-info=0 / no-lowpass-dct / refine-analysis-type=0 / copy-pic=1 / max-ausize-factor=1.0 / no-dynamic-refine / no-single-sei / no-hevc-aq / qp-adaptation-range=1.00
    Default                     : Yes
    Forced                      : No
    Color range                 : Limited
    Color primaries             : BT.709
    Transfer characteristics    : BT.709
    Matrix coefficients         : BT.709

    Audio #1
    ID                          : 2
    Format                      : AC-3
    Format/Info                 : Audio Coding 3
    Commercial name             : Dolby Digital
    Codec ID                    : A_AC3
    Duration                    : 2 h 5 min
    Bit rate mode               : Constant
    Bit rate                    : 384 kb/s
    Channel(s)                  : 6 channels
    Channel layout              : L R C LFE Ls Rs
    Sampling rate               : 48.0 kHz
    Frame rate                  : 31.250 FPS (1536 SPF)
    Compression mode            : Lossy
    Stream size                 : 345 MiB (1%)
    Title                       : Español Latino [CinemaniaHDD]
    Language                    : Spanish
    Service kind                : Complete Main
    Default                     : Yes
    Forced                      : No

    Audio #2
    ID                          : 3
    Format                      : E-AC-3 JOC
    Format/Info                 : Enhanced AC-3 with Joint Object Coding
    Commercial name             : Dolby Digital Plus with Dolby Atmos
    Codec ID                    : A_EAC3
    Duration                    : 2 h 4 min
    Bit rate mode               : Constant
    Bit rate                    : 768 kb/s
    Channel(s)                  : 6 channels
    Channel layout              : L R C LFE Ls Rs
    Sampling rate               : 48.0 kHz
    Frame rate                  : 31.250 FPS (1536 SPF)
    Compression mode            : Lossy
    Stream size                 : 684 MiB (2%)
    Title                       : Ingles [CinemaniaHDD]
    Language                    : English
    Service kind                : Complete Main
    Default                     : No
    Forced                      : No
    Complexity index            : 16
    Number of dynamic objects   : 15
    Bed channel count           : 1 channel
    Bed channel configuration   : LFE

    Text #1
    ID                          : 4
    Format                      : UTF-8
    Codec ID                    : S_TEXT/UTF8
    Codec ID/Info               : UTF-8 Plain Text
    Duration                    : 1 h 55 min
    Bit rate                    : 0 b/s
    Count of elements           : 23
    Stream size                 : 507 Bytes (0%)
    Title                       : Forzados-SRT [CinemaniaHDD]
    Language                    : Spanish
    Default                     : Yes
    Forced                      : No

    Text #2
    ID                          : 5
    Format                      : UTF-8
    Codec ID                    : S_TEXT/UTF8
    Codec ID/Info               : UTF-8 Plain Text
    Duration                    : 2 h 3 min
    Bit rate                    : 32 b/s
    Count of elements           : 1126
    Stream size                 : 29.1 KiB (0%)
    Title                       : Español-SRT [CinemaniaHDD]
    Language                    : Spanish
    Default                     : No
    Forced                      : No

    Text #3
    ID                          : 6
    Format                      : UTF-8
    Codec ID                    : S_TEXT/UTF8
    Codec ID/Info               : UTF-8 Plain Text
    Duration                    : 1 h 56 min
    Bit rate                    : 40 b/s
    Count of elements           : 1280
    Stream size                 : 34.6 KiB (0%)
    Title                       : Ingles-SRT [CinemaniaHDD]
    Language                    : English
    Default                     : No
    Forced                      : No

  • Peso: 28.6 GiB

Sinopsis

Descargar La Vieja Guardia (2020) 4K UHD SDR Web-DL Latino. The Old Guard narra la historia de un pequeño grupo de mercenarios inmortales encubiertos, que deben luchar para mantener unido a su equipo cuando descubren la existencia de un nuevo tipo de ser inmortal y sus extraordinarias habilidades salen a la luz.

Ficha técnica

Video trailer de la película

Enlaces de descarga

Rip de Bluray

Descargar La Vieja Guardia (2020) 4K UHD SDR Web-DL Latino




Aportes de DPeliculasHDmega la pass es:dpeliculashdmega.org Aportes de CinemaniaHD la pass es:cinemaniahdd.com

Películas relacionadas

descargar La Vieja Guardia (2020) 4K UHD SDR Web-DL Latino 4K UHD 1080p gratis, La Vieja Guardia (2020) 4K UHD SDR Web-DL Latino 4K UHD mega 1 link, La Vieja Guardia (2020) 4K UHD SDR Web-DL Latino 4K UHD pelicula completa, descargar La Vieja Guardia (2020) 4K UHD SDR Web-DL Latino 4K UHD gratis en mega.

La Vieja Guardia (2020) 4K UHD SDR Web-DL Latino pelicula full hd, La Vieja Guardia (2020) 4K UHD SDR Web-DL Latino mega latino, La Vieja Guardia (2020) 4K UHD SDR Web-DL Latino 4k latino, La Vieja Guardia (2020) 4K UHD SDR Web-DL Latino pelicula completa, La Vieja Guardia (2020) 4K UHD SDR Web-DL Latino descargar gratis, descargar La Vieja Guardia (2020) 4K UHD SDR Web-DL Latino pelicula latino, La Vieja Guardia (2020) 4K UHD SDR Web-DL Latino 1 link mega, La Vieja Guardia (2020) 4K UHD SDR Web-DL Latino 1 link google drive, La Vieja Guardia (2020) 4K UHD SDR Web-DL Latino hd 1080p latino.
Comentarios 0