La vida inmoral de la pareja ideal (2016) 1080p Latino

1.709 vistas
1 estrella2 estrellas3 estrellas4 estrellas5 estrellas (Ninguna valoración todavía)
Cargando…

Información de La vida inmoral de la pareja ideal (2016) 1080p Latino

Datos de la película

  • Calidad: 1080p
  • Audio: Español AC3 5.1 BLURAY
  • Subtitulos: No
  • Resolución: 1920x804
  • Formato: MKV
  • Codec: H.264
  • Encoder: Dpelis
  • Mediainfo: Clic para Mostrar Datos Ver
  • \La Vida Inmortal de La Pareja Ideal (2016) 1080p Latino.mkv
    Format                      : Matroska
    Format version              : Version 4 / Version 2
    File size                   : 2.37 GiB
    Duration                    : 1 h 30 min
    Overall bit rate            : 3 747 kb/s
    Movie name                  : DPeliculasHDMega.ORG
    Encoded date                : UTC 2017-10-05 23:57:38 / UTC 2017-10-05T06:39:31Z
    Writing application         : mkvmerge v10.0.0 ('To Drown In You') 64bit
    Writing library             : libebml v1.3.4 + libmatroska v1.4.5 / Lavf57.7.2

    Video
    ID                          : 1
    Format                      : AVC
    Format/Info                 : Advanced Video Codec
    Format profile              : [email protected]
    Format settings, CABAC      : Yes
    Format settings, RefFrames  : 5 frames
    Codec ID                    : V_MPEG4/ISO/AVC
    Duration                    : 1 h 30 min
    Bit rate                    : 3 288 kb/s
    Nominal bit rate            : 3 500 kb/s
    Width                       : 1 920 pixels
    Height                      : 804 pixels
    Display aspect ratio        : 2.40:1
    Frame rate mode             : Constant
    Frame rate                  : 24.000 FPS
    Color space                 : YUV
    Chroma subsampling          : 4:2:0
    Bit depth                   : 8 bits
    Scan type                   : Progressive
    Bits/(Pixel*Frame)          : 0.089
    Stream size                 : 2.08 GiB (88%)
    Writing library             : x264 core 148 r2708 86b7198
    Encoding settings           : cabac=1 / ref=5 / deblock=1:0:0 / analyse=0x3:0x113 / me=umh / subme=8 / psy=1 / psy_rd=1.00:0.00 / mixed_ref=1 / me_range=16 / chroma_me=1 / trellis=1 / 8x8dct=1 / cqm=0 / deadzone=21,11 / fast_pskip=1 / chroma_qp_offset=-2 / threads=12 / lookahead_threads=2 / sliced_threads=0 / nr=0 / decimate=1 / interlaced=0 / bluray_compat=0 / constrained_intra=0 / bframes=3 / b_pyramid=2 / b_adapt=2 / b_bias=0 / direct=3 / weightb=1 / open_gop=0 / weightp=2 / keyint=240 / keyint_min=24 / scenecut=40 / intra_refresh=0 / rc_lookahead=50 / rc=abr / mbtree=1 / bitrate=3500 / ratetol=1.0 / qcomp=0.60 / qpmin=0 / qpmax=69 / qpstep=4 / vbv_maxrate=62500 / vbv_bufsize=78125 / nal_hrd=none / filler=0 / ip_ratio=1.40 / aq=1:1.00
    Default                     : Yes
    Forced                      : No
    Color range                 : Limited
    Color primaries             : BT.709
    Transfer characteristics    : BT.709
    Matrix coefficients         : BT.709
    Statistics Tags Issue       : mkvmerge v10.0.0 ('To Drown In You') 64bit 2017-10-05 23:57:38 / mkvmerge v10.0.0 ('To Drown In You') 64bit 2017-10-05 23:57:38 / UTC 2017-10-05T06:39:31Z
    FromStats_BitRate           : 3360858
    FromStats_Duration          : 01:30:36.084000000
    FromStats_FrameCount        : 130466
    FromStats_StreamSize        : 2283738637

    Audio
    ID                          : 2
    Format                      : AC-3
    Format/Info                 : Audio Coding 3
    Format settings, Endianness : Big
    Codec ID                    : A_AC3
    Duration                    : 1 h 30 min
    Bit rate mode               : Constant
    Bit rate                    : 384 kb/s
    Channel(s)                  : 6 channels
    Channel positions           : Front: L C R, Side: L R, LFE
    Sampling rate               : 48.0 kHz
    Frame rate                  : 31.250 FPS (1536 SPF)
    Bit depth                   : 16 bits
    Compression mode            : Lossy
    Delay relative to video     : -5 ms
    Stream size                 : 249 MiB (10%)
    Title                       : Surround
    Service kind                : Complete Main
    Default                     : Yes
    Forced                      : No
    Statistics Tags Issue       : mkvmerge v10.0.0 ('To Drown In You') 64bit 2017-10-05 23:57:38 / mkvmerge v10.0.0 ('To Drown In You') 64bit 2017-10-05 23:57:38 / UTC 2017-10-05T06:39:31Z
    FromStats_BitRate           : 384000
    FromStats_Duration          : 01:30:36.064000000
    FromStats_FrameCount        : 169877
    FromStats_StreamSize        : 260931072

    Menu
    00:00:00.000                : :Chapter 1
    00:08:45.958                : :Chapter 2
    00:15:03.833                : :Chapter 3
    00:22:32.583                : :Chapter 4
    00:29:41.958                : :Chapter 5
    00:37:21.375                : :Chapter 6
    00:44:03.458                : :Chapter 7
    00:50:30.667                : :Chapter 8
    00:58:33.792                : :Chapter 9
    01:05:10.958                : :Chapter 10
    01:13:07.583                : :Chapter 11
    01:21:51.500                : :Chapter 12

  • Peso: 2.37GB

Sinopsis

La historia da cuenta de cómo “Lucio” y “Martina”, dos jóvenes que se conocen en los primeros años de preparatoria con una química indescriptible, deciden comerse al mundo sin imaginar que el destino y la sociedad les tendrán preparada una sorpresa que los separará para siempre.

Ficha técnica

  • Titulo original: La vida inmoral de la pareja ideal
  • Fecha de lanzamiento: 14-10-2016 (Mexico)
  • Director: Manolo Caro
  • Género: Comedia
  • Puntuación: 0.0 0 votos
  • Duración:
    1h 30m

Video trailer de la película

Enlaces de descarga

Rip de Bluray

Descargar La vida inmoral de la pareja ideal (2016) 1080p Latino




Aportes de DPeliculasHDmega la pass es:dpeliculashdmega.org Aportes de CinemaniaHD la pass es:cinemaniahdd.com
Guardado en : Comedia

Películas relacionadas

Comentarios 0