×

¿Problemas para descargar con Mozilla, EDGE? Deshabilita la opción "Abrir vinculos en una pestaña nueva" tal como lo muestra ésta imagen.

La vida electrizante de Louis Wain (2021) REMUX 1080p Latino

262 vistas

Información de La vida electrizante de Louis Wain (2021) REMUX 1080p Latino

Datos de la película

  • Calidad: Full 1080p
  • Audio: Español Latino AC3 2.0 WEB-DL - Ingles DTS 5.1 BLURAY
  • Subtitulos: Español Latino SRT- FORZADOS SRT
  • Resolución: 1920x1080p
  • Formato: MKV
  • Codec: H.264
  • Encoder: Melkor
  • Mediainfo: Clic para Mostrar Datos Ver
  • La vida Electrizante De Louis Wain (2021) REMUX 1080p Latino.mkv
    Format                      : Matroska
    Format version              : Version 4
    File size                   : 29.3 GiB
    Duration                    : 1 h 51 min
    Overall bit rate mode       : Variable
    Overall bit rate            : 37.7 Mb/s
    Movie name                  : The Electrical Life of Louis Wain (2021) CinemaniaHDD.Net
    Encoded date                : UTC 2022-01-26 07:09:58
    Writing application         : mkvmerge v56.1.0 ('My Friend') 64-bit
    Writing library             : libebml v1.4.2 + libmatroska v1.6.4
    Attachments                 : CINEMANIAHD.png

    Video
    ID                          : 1
    Format                      : AVC
    Format/Info                 : Advanced Video Codec
    Format profile              : High@L4.1
    Format settings             : CABAC / 4 Ref Frames
    Format settings, CABAC      : Yes
    Format settings, Reference  : 4 frames
    Format settings, GOP        : M=3, N=12
    Codec ID                    : V_MPEG4/ISO/AVC
    Duration                    : 1 h 51 min
    Bit rate mode               : Variable
    Bit rate                    : 33.8 Mb/s
    Maximum bit rate            : 35.0 Mb/s
    Width                       : 1 920 pixels
    Height                      : 1 080 pixels
    Display aspect ratio        : 16:9
    Frame rate mode             : Constant
    Frame rate                  : 24.000 FPS
    Color space                 : YUV
    Chroma subsampling          : 4:2:0
    Bit depth                   : 8 bits
    Scan type                   : Progressive
    Bits/(Pixel*Frame)          : 0.679
    Stream size                 : 26.3 GiB (90%)
    Title                       : REMUX HD1080p [CinemaniaHDD]
    Language                    : English
    Default                     : Yes
    Forced                      : Yes

    Audio #1
    ID                          : 2
    Format                      : AC-3
    Format/Info                 : Audio Coding 3
    Commercial name             : Dolby Digital
    Codec ID                    : A_AC3
    Duration                    : 1 h 51 min
    Bit rate mode               : Constant
    Bit rate                    : 256 kb/s
    Channel(s)                  : 2 channels
    Channel layout              : L R
    Sampling rate               : 48.0 kHz
    Frame rate                  : 31.250 FPS (1536 SPF)
    Compression mode            : Lossy
    Stream size                 : 204 MiB (1%)
    Title                       : Español Latino [CinemaniaHDD]
    Language                    : Spanish
    Service kind                : Complete Main
    Default                     : Yes
    Forced                      : Yes

    Audio #2
    ID                          : 3
    Format                      : DTS XLL
    Format/Info                 : Digital Theater Systems
    Commercial name             : DTS-HD Master Audio
    Codec ID                    : A_DTS
    Duration                    : 1 h 51 min
    Bit rate mode               : Variable
    Bit rate                    : 3 626 kb/s
    Channel(s)                  : 6 channels
    Channel layout              : C L R Ls Rs LFE
    Sampling rate               : 48.0 kHz
    Frame rate                  : 93.750 FPS (512 SPF)
    Bit depth                   : 24 bits
    Compression mode            : Lossless
    Stream size                 : 2.82 GiB (10%)
    Title                       : Ingles [CinemaniaHDD]
    Language                    : English
    Default                     : No
    Forced                      : No

    Text #1
    ID                          : 4
    Format                      : UTF-8
    Codec ID                    : S_TEXT/UTF8
    Codec ID/Info               : UTF-8 Plain Text
    Duration                    : 1 h 39 min
    Bit rate                    : 0 b/s
    Count of elements           : 15
    Stream size                 : 523 Bytes (0%)
    Title                       : Forzados-SRT [CinemaniaHDD]
    Language                    : Spanish
    Default                     : Yes
    Forced                      : Yes

    Text #2
    ID                          : 5
    Format                      : UTF-8
    Codec ID                    : S_TEXT/UTF8
    Codec ID/Info               : UTF-8 Plain Text
    Duration                    : 1 h 43 min
    Bit rate                    : 71 b/s
    Count of elements           : 1438
    Stream size                 : 54.2 KiB (0%)
    Title                       : Español-SRT [CinemaniaHDD]
    Language                    : Spanish
    Default                     : No
    Forced                      : No

    Text #3
    ID                          : 6
    Format                      : UTF-8
    Codec ID                    : S_TEXT/UTF8
    Codec ID/Info               : UTF-8 Plain Text
    Duration                    : 1 h 43 min
    Bit rate                    : 63 b/s
    Count of elements           : 1454
    Stream size                 : 48.2 KiB (0%)
    Title                       : Ingles [CinemaniaHDD]
    Language                    : English
    Default                     : No
    Forced                      : No

    Menu
    00:00:00.000                : :Chapter 01
    00:00:57.792                : :Chapter 02
    00:15:53.708                : :Chapter 03
    00:26:50.500                : :Chapter 04
    00:38:09.667                : :Chapter 05
    00:46:18.958                : :Chapter 06
    00:59:34.250                : :Chapter 07
    01:08:02.250                : :Chapter 08
    01:13:58.750                : :Chapter 09
    01:19:25.625                : :Chapter 10
    01:27:02.042                : :Chapter 11
    01:33:59.167                : :Chapter 12
    01:44:37.875                : :Chapter 13

  • Peso: 29.3 GiB

Sinopsis

Descargar La vida electrizante de Louis Wain (2021) REMUX 1080p Latino. Cuenta la historia real del británico Louis Wain, un artista, inventor y empresario, que hizo todo lo posible para cuidar de sus cinco hermanas y su madre. Dos eventos cambiaron su vida para siempre: conocer a Emily, el amor de su vida, y adoptar a Peter, un gatito perdido. Los dos se convertirán tanto en su familia como en su inspiración para pintar las extraordinarias imágenes de gatos que lo hicieron mundialmente famoso.

Ficha técnica

  • Titulo original: The Electrical Life of Louis Wain
  • Fecha de lanzamiento: 21-10-2021 (United Kingdom, United States of America)
  • Director: Will Sharpe
  • Género: Drama, Historia, Remux

Video trailer de la película

Enlaces de descarga

Rip de Bluray

Descargar La vida electrizante de Louis Wain (2021) REMUX 1080p Latino




Aportes de DPeliculasHDmega la pass es:dpeliculashdmega.org Aportes de CinemaniaHD la pass es:cinemaniahdd.com
Guardado en : Drama , Historia , Remux

Películas relacionadas

descargar La vida electrizante de Louis Wain (2021) REMUX 1080p Latino Full 1080p 1080p gratis, La vida electrizante de Louis Wain (2021) REMUX 1080p Latino Full 1080p mega 1 link, La vida electrizante de Louis Wain (2021) REMUX 1080p Latino Full 1080p pelicula completa, descargar La vida electrizante de Louis Wain (2021) REMUX 1080p Latino Full 1080p gratis en mega.

La vida electrizante de Louis Wain (2021) REMUX 1080p Latino pelicula full hd, La vida electrizante de Louis Wain (2021) REMUX 1080p Latino mega latino, La vida electrizante de Louis Wain (2021) REMUX 1080p Latino 4k latino, La vida electrizante de Louis Wain (2021) REMUX 1080p Latino pelicula completa, La vida electrizante de Louis Wain (2021) REMUX 1080p Latino descargar gratis, descargar La vida electrizante de Louis Wain (2021) REMUX 1080p Latino pelicula latino, La vida electrizante de Louis Wain (2021) REMUX 1080p Latino 1 link mega, La vida electrizante de Louis Wain (2021) REMUX 1080p Latino 1 link google drive, La vida electrizante de Louis Wain (2021) REMUX 1080p Latino hd 1080p latino.
Comentarios 0