×

¿Problemas para descargar con Mozilla, EDGE? Deshabilita la opción "Abrir vinculos en una pestaña nueva" tal como lo muestra ésta imagen.

La verdadera historia de la banda de Kelly (2019) REMUX 1080p Latino

182 vistas

Información de La verdadera historia de la banda de Kelly (2019) REMUX 1080p Latino

Datos de la película

  • Calidad: Full 1080p
  • Audio: Español Latino AC3 2.0 WEB-DL - Ingles DTS 5.1 BLURAY
  • Subtitulos: Español Latino SRT- FORZADOS SRT
  • Resolución: 1920x1080p
  • Formato: MKV
  • Codec: H.264
  • Encoder: Melkor
  • Mediainfo: Clic para Mostrar Datos Ver
  • La verdadera historia de la banda de Kelly (2019) REMUX 1080p Latino.mkv
    Format                      : Matroska
    Format version              : Version 4
    File size                   : 26.3 GiB
    Duration                    : 2 h 5 min
    Overall bit rate mode       : Variable
    Overall bit rate            : 30.1 Mb/s
    Movie name                  : True History of the Kelly Gang (2019) CinemaniaHDD.Net
    Encoded date                : UTC 2022-05-31 08:02:42
    Writing application         : mkvmerge v56.1.0 ('My Friend') 64-bit
    Writing library             : libebml v1.4.2 + libmatroska v1.6.4
    Attachments                 : CINEMANIAHD.png

    Video
    ID                          : 1
    Format                      : AVC
    Format/Info                 : Advanced Video Codec
    Format profile              : High@L4.1
    Format settings             : CABAC / 4 Ref Frames
    Format settings, CABAC      : Yes
    Format settings, Reference  : 4 frames
    Codec ID                    : V_MPEG4/ISO/AVC
    Duration                    : 2 h 5 min
    Bit rate mode               : Variable
    Bit rate                    : 28.0 Mb/s
    Maximum bit rate            : 35.0 Mb/s
    Width                       : 1 920 pixels
    Height                      : 1 080 pixels
    Display aspect ratio        : 16:9
    Frame rate mode             : Constant
    Frame rate                  : 24.000 FPS
    Standard                    : NTSC
    Color space                 : YUV
    Chroma subsampling          : 4:2:0
    Bit depth                   : 8 bits
    Scan type                   : Progressive
    Bits/(Pixel*Frame)          : 0.562
    Stream size                 : 24.5 GiB (93%)
    Title                       : REMUX HD1080p [CinemaniaHDD]
    Default                     : Yes
    Forced                      : Yes
    Color range                 : Limited
    Color primaries             : BT.709
    Transfer characteristics    : BT.709
    Matrix coefficients         : BT.709

    Audio #1
    ID                          : 2
    Format                      : AC-3
    Format/Info                 : Audio Coding 3
    Commercial name             : Dolby Digital
    Codec ID                    : A_AC3
    Duration                    : 2 h 5 min
    Bit rate mode               : Constant
    Bit rate                    : 256 kb/s
    Channel(s)                  : 2 channels
    Channel layout              : L R
    Sampling rate               : 48.0 kHz
    Frame rate                  : 31.250 FPS (1536 SPF)
    Compression mode            : Lossy
    Stream size                 : 229 MiB (1%)
    Title                       : Español Latino [CinemaniaHDD]
    Language                    : Spanish
    Service kind                : Complete Main
    Default                     : Yes
    Forced                      : Yes

    Audio #2
    ID                          : 3
    ID in the original source m : 4353 (0x1101)
    Format                      : DTS XLL
    Format/Info                 : Digital Theater Systems
    Commercial name             : DTS-HD Master Audio
    Codec ID                    : A_DTS
    Duration                    : 2 h 5 min
    Bit rate mode               : Variable
    Bit rate                    : 1 847 kb/s
    Channel(s)                  : 6 channels
    Channel layout              : C L R Ls Rs LFE
    Sampling rate               : 48.0 kHz
    Frame rate                  : 93.750 FPS (512 SPF)
    Bit depth                   : 16 bits
    Compression mode            : Lossless
    Stream size                 : 1.62 GiB (6%)
    Title                       : Ingles [CinemaniaHDD]
    Language                    : English
    Default                     : No
    Forced                      : No
    Original source medium      : Blu-ray

    Text #1
    ID                          : 4
    Format                      : UTF-8
    Codec ID                    : S_TEXT/UTF8
    Codec ID/Info               : UTF-8 Plain Text
    Duration                    : 1 h 58 min
    Bit rate                    : 0 b/s
    Count of elements           : 6
    Stream size                 : 304 Bytes (0%)
    Title                       : Forzados-SRT [CinemaniaHDD]
    Language                    : Spanish
    Default                     : Yes
    Forced                      : Yes

    Text #2
    ID                          : 5
    Format                      : UTF-8
    Codec ID                    : S_TEXT/UTF8
    Codec ID/Info               : UTF-8 Plain Text
    Duration                    : 1 h 58 min
    Bit rate                    : 52 b/s
    Count of elements           : 1360
    Stream size                 : 45.3 KiB (0%)
    Title                       : Español-SRT [CinemaniaHDD]
    Language                    : Spanish
    Default                     : No
    Forced                      : No

    Text #3
    ID                          : 6
    Format                      : UTF-8
    Codec ID                    : S_TEXT/UTF8
    Codec ID/Info               : UTF-8 Plain Text
    Duration                    : 1 h 59 min
    Bit rate                    : 54 b/s
    Count of elements           : 1579
    Stream size                 : 47.8 KiB (0%)
    Title                       : Ingles [CinemaniaHDD]
    Language                    : English
    Default                     : No
    Forced                      : No

    Menu
    00:00:00.000                : Chapter 01
    00:07:18.375                : Chapter 02
    00:16:09.875                : Chapter 03
    00:23:08.833                : Chapter 04
    00:30:33.875                : Chapter 05
    00:39:32.000                : Chapter 06
    00:45:54.708                : Chapter 07
    00:51:22.916                : Chapter 08
    01:02:01.041                : Chapter 09
    01:10:02.416                : Chapter 10
    01:17:10.625                : Chapter 11
    01:26:42.208                : Chapter 12
    01:36:00.291                : Chapter 13
    01:41:59.291                : Chapter 14
    01:51:32.875                : Chapter 15
    01:59:45.375                : Chapter 16

  • Peso: 26.3 GiB

Sinopsis

Descargar La verdadera historia de la banda de Kelly (2019) REMUX 1080p Latino. Basada en la novela de Peter Carey, ganadora del Premio Booker, narra la vida del bandido australiano Ned Kelly. Tras la muerte de su padre, el joven Ned tuvo que tratar de hacer lo posible para asegurarse de que su madre sobreviviera. Sin embargo, esta no era una tarea fácil en la Australia de 1870, asolada por la pobreza y por el hambre. Ned comenzará, entonces, un viaje que le convertirá en una leyenda.

Ficha técnica

Video trailer de la película

Enlaces de descarga

Rip de Bluray

Descargar La verdadera historia de la banda de Kelly (2019) REMUX 1080p Latino




Aportes de DPeliculasHDmega la pass es:dpeliculashdmega.org Aportes de CinemaniaHD la pass es:cinemaniahdd.com
Guardado en : Crimen , Drama , Remux , Suspenso , Western

Películas relacionadas

  • Emily la criminal (2022) HD 1080p Latino

    Emily la criminal (2022) HD 1080p Latino

    2022
    Emily la criminal (2022) HD 1080p Latino

    1h 37m 2022

    Descargar Emily la criminal (2022) HD 1080p Latino. Emily, que tiene una deuda estudiantil y está excluida...

    Director: John Patton Ford

    Género: Crimen

    Actores: Theo Rossi

  • Emily la criminal (2022) REMUX 1080p Latino

    Emily la criminal (2022) REMUX 1080p Latino

    2022
    Emily la criminal (2022) REMUX 1080p Latino

    1h 37m 2022

    Descargar Emily la criminal (2022) REMUX 1080p Latino. Emily, que tiene una deuda estudiantil y está...

    Director: John Patton Ford

    Género: Crimen

    Actores: Theo Rossi

  • Herencia peligrosa (2022) HD 1080p Latino

    Herencia peligrosa (2022) HD 1080p Latino

    2022
    Herencia peligrosa (2022) HD 1080p Latino

    1h 34m 2022

    Descargar Herencia peligrosa (2022) HD 1080p Latino. Tres ladrones se hacen con el yate de lujo de una...

    Director: Declan Whitebloom

    Género: Acción

    Actores: Vernon Davis

descargar La verdadera historia de la banda de Kelly (2019) REMUX 1080p Latino Full 1080p 1080p gratis, La verdadera historia de la banda de Kelly (2019) REMUX 1080p Latino Full 1080p mega 1 link, La verdadera historia de la banda de Kelly (2019) REMUX 1080p Latino Full 1080p pelicula completa, descargar La verdadera historia de la banda de Kelly (2019) REMUX 1080p Latino Full 1080p gratis en mega.

La verdadera historia de la banda de Kelly (2019) REMUX 1080p Latino pelicula full hd, La verdadera historia de la banda de Kelly (2019) REMUX 1080p Latino mega latino, La verdadera historia de la banda de Kelly (2019) REMUX 1080p Latino 4k latino, La verdadera historia de la banda de Kelly (2019) REMUX 1080p Latino pelicula completa, La verdadera historia de la banda de Kelly (2019) REMUX 1080p Latino descargar gratis, descargar La verdadera historia de la banda de Kelly (2019) REMUX 1080p Latino pelicula latino, La verdadera historia de la banda de Kelly (2019) REMUX 1080p Latino 1 link mega, La verdadera historia de la banda de Kelly (2019) REMUX 1080p Latino 1 link google drive, La verdadera historia de la banda de Kelly (2019) REMUX 1080p Latino hd 1080p latino.
Comentarios 0