La Verdad Sobre las Mentiras (2017) WEBDL 1080p Latino

572 vistas
1 estrella2 estrellas3 estrellas4 estrellas5 estrellas (Ninguna valoración todavía)
Cargando…

Información de La Verdad Sobre las Mentiras (2017) WEBDL 1080p Latino

Datos de la película

  • Calidad: WEBDL
  • Audio: Español Latino AC3 2.0 Capturado - Ingles AC3 5.1 WEBDL
  • Subtitulos: No
  • Resolución: 1908x1068p
  • Formato: MKV
  • Codec: H.264
  • Encoder: FGT
  • Mediainfo: Clic para Mostrar Datos Ver
  • The Truth About Lies (2017) Web-DL 1080p Latino.mkv
    Format                      : Matroska
    Format version              : Version 4 / Version 2
    File size                   : 4.02 GiB
    Duration                    : 1 h 38 min
    Overall bit rate            : 5 865 kb/s
    Movie name                  : The Truth About Lies (2017) Web-1080p.WEB-DL.DD5.1.H264-FGT[EtHD] (1)
    Encoded date                : UTC 2018-10-12 01:16:36
    Writing application         : mkvmerge v25.0.0 ('Prog Noir') 64-bit
    Writing library             : libebml v1.3.6 + libmatroska v1.4.9
    Cover                       : Yes
    Attachments                 : cover_land.jpg / small_cover.jpg / small_cover_land.jpg / cover.jpg

    Video
    ID                          : 1
    Format                      : AVC
    Format/Info                 : Advanced Video Codec
    Format profile              : High@L4
    Format settings             : CABAC / 4 Ref Frames
    Format settings, CABAC      : Yes
    Format settings, RefFrames  : 4 frames
    Codec ID                    : V_MPEG4/ISO/AVC
    Duration                    : 1 h 38 min
    Bit rate                    : 5 222 kb/s
    Width                       : 1 908 pixels
    Height                      : 1 068 pixels
    Display aspect ratio        : 16:9
    Frame rate mode             : Constant
    Frame rate                  : 23.976 (24000/1001) FPS
    Color space                 : YUV
    Chroma subsampling          : 4:2:0
    Bit depth                   : 8 bits
    Scan type                   : Progressive
    Bits/(Pixel*Frame)          : 0.107
    Stream size                 : 3.58 GiB (89%)
    Title                       : HD1080p [Web-DL]
    Default                     : Yes
    Forced                      : No
    Color range                 : Limited
    Color primaries             : BT.709
    Transfer characteristics    : BT.709
    Matrix coefficients         : BT.709

    Audio #1
    ID                          : 2
    Format                      : AC-3
    Format/Info                 : Audio Coding 3
    Format settings, Endianness : Big
    Codec ID                    : A_AC3
    Duration                    : 1 h 38 min
    Bit rate mode               : Constant
    Bit rate                    : 256 kb/s
    Channel(s)                  : 2 channels
    Channel positions           : Front: L R
    Sampling rate               : 48.0 kHz
    Frame rate                  : 31.250 FPS (1536 SPF)
    Bit depth                   : 16 bits
    Compression mode            : Lossy
    Stream size                 : 180 MiB (4%)
    Title                       : AC3_2.0_Capturado_Esp
    Language                    : Spanish
    Service kind                : Complete Main
    Default                     : Yes
    Forced                      : No

    Audio #2
    ID                          : 3
    Format                      : AC-3
    Format/Info                 : Audio Coding 3
    Format settings, Endianness : Big
    Codec ID                    : A_AC3
    Duration                    : 1 h 38 min
    Bit rate mode               : Constant
    Bit rate                    : 384 kb/s
    Channel(s)                  : 6 channels
    Channel positions           : Front: L C R, Side: L R, LFE
    Sampling rate               : 48.0 kHz
    Frame rate                  : 31.250 FPS (1536 SPF)
    Bit depth                   : 16 bits
    Compression mode            : Lossy
    Stream size                 : 270 MiB (7%)
    Title                       : AC3_5.1_Web-DL_Eng
    Language                    : English
    Service kind                : Complete Main
    Default                     : No
    Forced                      : No

    Text
    ID                          : 4
    Format                      : UTF-8
    Codec ID                    : S_TEXT/UTF8
    Codec ID/Info               : UTF-8 Plain Text
    Duration                    : 1 h 36 min
    Bit rate                    : 103 b/s
    Count of elements           : 2283
    Stream size                 : 73.3 KiB (0%)
    Title                       : Sub_Eng
    Language                    : English
    Default                     : No
    Forced                      : No

    Menu
    00:00:00.000                : en:1
    00:01:05.000                : en:2
    00:08:41.000                : en:3
    00:19:28.000                : en:4
    00:28:59.000                : en:5
    00:39:37.000                : en:6
    00:50:18.000                : en:7
    01:00:13.000                : en:8
    01:10:40.000                : en:9
    01:20:43.000                : en:10
    01:34:11.000                : en:11

  • Peso: 4.02 GiB

Sinopsis

La Verdad Sobre las Mentiras (2017) WEBDL 1080p Latino; Mega, Google Drive. Gilby ha perdido su trabajo y su departamento, por lo que debe volver a vivir con su alcohólica y promiscua madre. Cuando conoce a una amiga de su hermana, Gilby se enamora y empieza a encadenar una mentira tras otra para impresionarla.

Ficha técnica

  • Titulo original: The Truth About Lies
  • Fecha de lanzamiento: 01-08-2017
  • Director: Phil Allocco
  • Género: Comedia, HD 1080p, Romance
  • Puntuación: 0.0 0 votos
  • Duración:
    1h 34m

Video trailer de la película

Enlaces de descarga

Rip de Bluray

Descargar La Verdad Sobre las Mentiras (2017) WEBDL 1080p Latino




Aportes de DPeliculasHDmega la pass es:dpeliculashdmega.org Aportes de CinemaniaHD la pass es:cinemaniahdd.com
Guardado en : Comedia , HD 1080p , Romance

Películas relacionadas

  • Titanes (2018) Temporada 01 Web-DL 1080p Subtitulado

    2018
    Titanes (2018) Temporada 01 Web-DL 1080p Subtitulado

    3.3 0h 43m 2018

    Descargar Titanes (2018) Temporada 01 Web-DL 1080p Subtitulado; Mega, Google Drive. Un equipo de jóvenes...

    Director: Greg Berlanti

    Género: Action & Adventure

    Actores: Teagan Croft

  • El Justiciero 2 (2018) 1080p Latino

    2018
    El Justiciero 2 (2018) 1080p Latino

    2.5 2h 0m 2018

    Descargar El Justiciero 2 (2018) 1080p Latino, Mega, Google Drive. Robert McCall (Denzel Washington)...

    Director: Donald Sparks

    Género: Acción

    Actores: Wesley Pereira

  • El infiltrado del KKKlan (2018) Full 1080p Latino

    2018
    El infiltrado del KKKlan (2018) Full 1080p Latino

    5.0 2h 15m 2018

    A principios de los años setenta, una época de gran agitación social con la encarnizada lucha por...

    Director: Spike Lee

    Género: Comedia

    Actores: Topher Grace

  • Locamente Millonarios (2018) 1080p Latino

    2018
    Locamente Millonarios (2018) 1080p Latino

    0.0 2h 0m 2018

    Locamente Millonarios (2018) 1080p Latino; Mega, Google Drive. Rachel Chu es profesora de economía en...

    Director: Jon M. Chu

    Género: Comedia

    Actores: Victoria Loke

Comentarios 0