×

¿Problemas para descargar con Mozilla, EDGE? Deshabilita la opción "Abrir vinculos en una pestaña nueva" tal como lo muestra ésta imagen.

La verdad sobre John DeLorean (2019) 1080p Latino

831 vistas

Información de La verdad sobre John DeLorean (2019) 1080p Latino

Datos de la película

  • Calidad: 1080p
  • Audio: Español Latino AC3 2.0 DVD - Ingles AC3 5.1 BLURAY
  • Subtitulos: Español Latino SRT- FORZADOS SRT
  • Resolución: 1920x1012
  • Formato: MKV
  • Codec: H.264
  • Encoder: cinemaniahdd
  • Mediainfo: Clic para Mostrar Datos Ver
  • Framing John Delorean (2019) 1080p Latino.mkv
    Format                      : Matroska
    Format version              : Version 4
    File size                   : 3.16 GiB
    Duration                    : 1 h 49 min
    Overall bit rate            : 4 145 kb/s
    Movie name                  : Framing John Delorean (2019) - CinemaniaHDD.Net
    Encoded date                : UTC 2020-02-02 00:59:00
    Writing application         : mkvmerge v42.0.0 ('Overtime') 64-bit
    Writing library             : libebml v1.3.10 + libmatroska v1.5.2

    Video
    ID                          : 1
    Format                      : AVC
    Format/Info                 : Advanced Video Codec
    Format profile              : Main@L4
    Format settings             : CABAC / 4 Ref Frames
    Format settings, CABAC      : Yes
    Format settings, ReFrames   : 4 frames
    Codec ID                    : V_MPEG4/ISO/AVC
    Duration                    : 1 h 49 min
    Bit rate                    : 3 500 kb/s
    Width                       : 1 920 pixels
    Height                      : 1 012 pixels
    Display aspect ratio        : 1.897
    Frame rate mode             : Constant
    Frame rate                  : 23.976 (24000/1001) FPS
    Color space                 : YUV
    Chroma subsampling          : 4:2:0
    Bit depth                   : 8 bits
    Scan type                   : Progressive
    Bits/(Pixel*Frame)          : 0.075
    Stream size                 : 2.62 GiB (83%)
    Title                       : CinemaniaHDD
    Writing library             : x264 core 157 r2935 545de2f
    Encoding settings           : cabac=1 / ref=3 / deblock=1:0:0 / analyse=0x1:0x111 / me=hex / subme=7 / psy=1 / psy_rd=1.00:0.00 / mixed_ref=1 / me_range=16 / chroma_me=1 / trellis=1 / 8x8dct=0 / cqm=0 / deadzone=21,11 / fast_pskip=1 / chroma_qp_offset=-2 / threads=32 / lookahead_threads=5 / sliced_threads=0 / nr=0 / decimate=1 / interlaced=0 / bluray_compat=0 / constrained_intra=0 / bframes=3 / b_pyramid=2 / b_adapt=1 / b_bias=0 / direct=1 / weightb=1 / open_gop=0 / weightp=2 / keyint=240 / keyint_min=24 / scenecut=40 / intra_refresh=0 / rc_lookahead=40 / rc=abr / mbtree=1 / bitrate=3500 / ratetol=1.0 / qcomp=0.60 / qpmin=0 / qpmax=69 / qpstep=4 / vbv_maxrate=20000 / vbv_bufsize=25000 / nal_hrd=none / filler=0 / ip_ratio=1.40 / aq=1:1.00
    Default                     : Yes
    Forced                      : No
    Color range                 : Limited
    Color primaries             : BT.709
    Transfer characteristics    : BT.709
    Matrix coefficients         : BT.709

    Audio #1
    ID                          : 2
    Format                      : AC-3
    Format/Info                 : Audio Coding 3
    Commercial name             : Dolby Digital
    Codec ID                    : A_AC3
    Duration                    : 1 h 49 min
    Bit rate mode               : Constant
    Bit rate                    : 256 kb/s
    Channel(s)                  : 2 channels
    Channel layout              : L R
    Sampling rate               : 48.0 kHz
    Frame rate                  : 31.250 FPS (1536 SPF)
    Bit depth                   : 16 bits
    Compression mode            : Lossy
    Delay relative to video     : -5 ms
    Stream size                 : 200 MiB (6%)
    Title                       : Español latino [CinemaniaHDD]
    Language                    : Spanish
    Service kind                : Complete Main
    Default                     : Yes
    Forced                      : No

    Audio #2
    ID                          : 3
    Format                      : AC-3
    Format/Info                 : Audio Coding 3
    Commercial name             : Dolby Digital
    Codec ID                    : A_AC3
    Duration                    : 1 h 49 min
    Bit rate mode               : Constant
    Bit rate                    : 448 kb/s
    Channel(s)                  : 6 channels
    Channel layout              : L R C LFE Ls Rs
    Sampling rate               : 48.0 kHz
    Frame rate                  : 31.250 FPS (1536 SPF)
    Bit depth                   : 16 bits
    Compression mode            : Lossy
    Delay relative to video     : -5 ms
    Stream size                 : 350 MiB (11%)
    Title                       : Inglés [CinemaniaHDD]
    Language                    : English
    Service kind                : Complete Main
    Default                     : No
    Forced                      : No

    Text #1
    ID                          : 4
    Format                      : UTF-8
    Codec ID                    : S_TEXT/UTF8
    Codec ID/Info               : UTF-8 Plain Text
    Duration                    : 1 h 44 min
    Bit rate                    : 0 b/s
    Count of elements           : 15
    Stream size                 : 616 Bytes (0%)
    Title                       : Forzados [CinemaniaHDD]
    Language                    : Spanish
    Default                     : Yes
    Forced                      : Yes

    Text #2
    ID                          : 5
    Format                      : UTF-8
    Codec ID                    : S_TEXT/UTF8
    Codec ID/Info               : UTF-8 Plain Text
    Duration                    : 1 h 48 min
    Bit rate                    : 107 b/s
    Count of elements           : 1817
    Stream size                 : 85.2 KiB (0%)
    Title                       : Español latino [CinemaniaHDD]
    Language                    : Spanish
    Default                     : No
    Forced                      : No

    Menu
    00:00:00.000                : :Chapter 1
    00:09:54.385                : :Chapter 2
    00:17:27.046                : :Chapter 3
    00:26:30.255                : :Chapter 4
    00:35:59.532                : :Chapter 5
    00:42:54.572                : :Chapter 6
    00:55:22.444                : :Chapter 7
    01:04:10.138                : :Chapter 8
    01:18:18.319                : :Chapter 9
    01:33:06.247                : :Chapter 10
    01:39:42.852                : :Chapter 11
    01:45:11.972                : :Chapter 12

     

  • Peso: 3.16 GiB

Sinopsis

Genio. Fracasado. Salvador. Mentiroso. John DeLorean era un inconformista que desafió a la industria para crear la DeLorean Motor Company, que estuvo repleto de desastres desde el principio. En un intento por mantener a flote su estilo de vida, se vio envuelto en una operación encubierta del FBI y le pillaron con las manos en la masa, intercambiando millones por el transporte de cocaína. Esta es la verdadera historia de la codicia y la ambición sin fin tras el vehículo que se convertiría en uno de los artículos de culto más grandes de los años ochenta. Alec Baldwin le da vida a DeLorean en estas recreaciones, junto a unas entrevistas con compañeros, empleados, abogados, amigos y familiares que lo conocían mejor, ya que todos intentan descubrir al hombre detrás del automóvil.

Ficha técnica

Video trailer de la película

Enlaces de descarga

Rip de Bluray

Descargar La verdad sobre John DeLorean (2019) 1080p Latino




Aportes de DPeliculasHDmega la pass es:dpeliculashdmega.org Aportes de CinemaniaHD la pass es:cinemaniahdd.com
Guardado en : Documental , Drama , HD 1080p

Películas relacionadas

descargar La verdad sobre John DeLorean (2019) 1080p Latino 1080p 1080p gratis, La verdad sobre John DeLorean (2019) 1080p Latino 1080p mega 1 link, La verdad sobre John DeLorean (2019) 1080p Latino 1080p pelicula completa, descargar La verdad sobre John DeLorean (2019) 1080p Latino 1080p gratis en mega.

La verdad sobre John DeLorean (2019) 1080p Latino pelicula full hd, La verdad sobre John DeLorean (2019) 1080p Latino mega latino, La verdad sobre John DeLorean (2019) 1080p Latino 4k latino, La verdad sobre John DeLorean (2019) 1080p Latino pelicula completa, La verdad sobre John DeLorean (2019) 1080p Latino descargar gratis, descargar La verdad sobre John DeLorean (2019) 1080p Latino pelicula latino, La verdad sobre John DeLorean (2019) 1080p Latino 1 link mega, La verdad sobre John DeLorean (2019) 1080p Latino 1 link google drive, La verdad sobre John DeLorean (2019) 1080p Latino hd 1080p latino.
Comentarios 0