×

¿Problemas para descargar con Mozilla, EDGE? Deshabilita la opción "Abrir vinculos en una pestaña nueva" tal como lo muestra ésta imagen.

La Verdad (2019) PLACEBO Full HD 1080p Latino

134 vistas

Información de La Verdad (2019) PLACEBO Full HD 1080p Latino

Datos de la película

  • Calidad: Full 1080p
  • Audio: Se especifica abajo de la Sinopsis
  • Subtitulos: Español Latino SRT- FORZADOS SRT
  • Resolución: 1920x1080p
  • Formato: MKV
  • Codec: H.264
  • Encoder: Melkor
  • Mediainfo: Clic para Mostrar Datos Ver
  • La Verdad (2019) PLACEBO Full HD 1080p Latino.mkv
    Format                      : Matroska
    Format version              : Version 4
    File size                   : 17.4 GiB
    Duration                    : 1 h 46 min
    Overall bit rate            : 23.3 Mb/s
    Movie name                  : La Vérité (2019) CinemaniaHDD.Net
    Encoded date                : UTC 2021-08-31 17:42:12
    Writing application         : mkvmerge v56.1.0 ('My Friend') 64-bit
    Writing library             : libebml v1.4.2 + libmatroska v1.6.4
    Attachments                 : CINEMANIAHD.png

    Video
    ID                          : 1
    Format                      : AVC
    Format/Info                 : Advanced Video Codec
    Format profile              : High@L4.1
    Format settings             : CABAC / 4 Ref Frames
    Format settings, CABAC      : Yes
    Format settings, Reference  : 4 frames
    Codec ID                    : V_MPEG4/ISO/AVC
    Duration                    : 1 h 46 min
    Bit rate                    : 21.2 Mb/s
    Width                       : 1 920 pixels
    Height                      : 1 080 pixels
    Display aspect ratio        : 16:9
    Frame rate mode             : Constant
    Frame rate                  : 23.976 (24000/1001) FPS
    Color space                 : YUV
    Chroma subsampling          : 4:2:0
    Bit depth                   : 8 bits
    Scan type                   : Progressive
    Bits/(Pixel*Frame)          : 0.426
    Stream size                 : 15.8 GiB (91%)
    Title                       : Full HD1080p [CinemaniaHDD]
    Writing library             : x264 core 163 r3059 b684ebe0
    Encoding settings           : cabac=1 / ref=4 / deblock=1:0:0 / analyse=0x3:0x133 / me=tesa / subme=11 / psy=1 / psy_rd=1.00:0.00 / mixed_ref=1 / me_range=24 / chroma_me=1 / trellis=2 / 8x8dct=1 / cqm=0 / deadzone=21,11 / fast_pskip=0 / chroma_qp_offset=-2 / threads=24 / lookahead_threads=6 / sliced_threads=0 / nr=0 / decimate=1 / interlaced=0 / bluray_compat=0 / constrained_intra=0 / bframes=16 / b_pyramid=2 / b_adapt=2 / b_bias=0 / direct=3 / weightb=1 / open_gop=0 / weightp=2 / keyint=240 / keyint_min=24 / scenecut=40 / intra_refresh=0 / rc_lookahead=60 / rc=crf / mbtree=1 / crf=20.0 / qcomp=0.60 / qpmin=0 / qpmax=69 / qpstep=4 / vbv_maxrate=62500 / vbv_bufsize=78125 / crf_max=0.0 / nal_hrd=none / filler=0 / ip_ratio=1.40 / aq=1:1.00
    Default                     : Yes
    Forced                      : Yes
    Color range                 : Limited
    Color primaries             : BT.709
    Transfer characteristics    : BT.709
    Matrix coefficients         : BT.709

    Audio #1
    ID                          : 2
    Format                      : AC-3
    Format/Info                 : Audio Coding 3
    Commercial name             : Dolby Digital
    Codec ID                    : A_AC3
    Duration                    : 1 h 46 min
    Bit rate mode               : Constant
    Bit rate                    : 640 kb/s
    Channel(s)                  : 6 channels
    Channel layout              : L R C LFE Ls Rs
    Sampling rate               : 48.0 kHz
    Frame rate                  : 31.250 FPS (1536 SPF)
    Compression mode            : Lossy
    Delay relative to video     : 21 ms
    Stream size                 : 490 MiB (3%)
    Title                       : Español Latino [CinemaniaHDD]
    Language                    : Spanish
    Service kind                : Complete Main
    Default                     : Yes
    Forced                      : Yes

    Audio #2
    ID                          : 3
    Format                      : DTS
    Format/Info                 : Digital Theater Systems
    Codec ID                    : A_DTS
    Duration                    : 1 h 46 min
    Bit rate mode               : Constant
    Bit rate                    : 1 509 kb/s
    Channel(s)                  : 6 channels
    Channel layout              : C L R Ls Rs LFE
    Sampling rate               : 48.0 kHz
    Frame rate                  : 93.750 FPS (512 SPF)
    Bit depth                   : 24 bits
    Compression mode            : Lossy
    Stream size                 : 1.13 GiB (6%)
    Title                       : Frances  [CinemaniaHDD]
    Language                    : French
    Default                     : No
    Forced                      : No

    Text #1
    ID                          : 4
    Format                      : UTF-8
    Codec ID                    : S_TEXT/UTF8
    Codec ID/Info               : UTF-8 Plain Text
    Duration                    : 1 h 6 min
    Bit rate                    : 0 b/s
    Count of elements           : 6
    Stream size                 : 184 Bytes (0%)
    Title                       : Forzados-SRT [CinemaniaHDD]
    Language                    : Spanish
    Default                     : Yes
    Forced                      : Yes

    Text #2
    ID                          : 5
    Format                      : UTF-8
    Codec ID                    : S_TEXT/UTF8
    Codec ID/Info               : UTF-8 Plain Text
    Duration                    : 1 h 41 min
    Bit rate                    : 55 b/s
    Count of elements           : 1514
    Stream size                 : 41.7 KiB (0%)
    Title                       : Español-SRT [CinemaniaHDD]
    Language                    : Spanish
    Default                     : No
    Forced                      : No

    Text #3
    ID                          : 6
    ID in the original source m : 4609 (0x1201)
    Format                      : PGS
    Muxing mode                 : zlib
    Codec ID                    : S_HDMV/PGS
    Codec ID/Info               : Picture based subtitle format used on BDs/HD-DVDs
    Duration                    : 1 h 46 min
    Bit rate                    : 32.5 kb/s
    Count of elements           : 3276
    Stream size                 : 24.7 MiB (0%)
    Title                       : Frances-PGS [CinemaniaHDD]
    Language                    : French
    Default                     : No
    Forced                      : No
    Original source medium      : Blu-ray

    Menu
    00:00:00.000                : Chapter 01
    00:10:22.955                : Chapter 02
    00:19:17.865                : Chapter 03
    00:27:33.777                : Chapter 04
    00:36:03.494                : Chapter 05
    00:46:08.182                : Chapter 06
    00:54:51.413                : Chapter 07
    01:03:46.072                : Chapter 08
    01:12:21.003                : Chapter 09
    01:20:38.708                : Chapter 10
    01:29:13.181                : Chapter 11
    01:39:32.216                : Chapter 12

  • Peso: 17.4 GiB

Sinopsis

Descargar La Verdad (2019) PLACEBO Full HD 1080p Latino. Fabienne Dangeville (Catherine Deneuve) es una aclamada actriz del cine francés, amada y alabada por todos los hombres que llegaron a formar parte de su vida. Cuando publica sus memorias, su hija Lumir (Juliette Binoche) regresa de Nueva York, donde vive con su familia, para la presentación. El reencuentro entre madre e hija no tardará en convertirse en un enfrentamiento: se revelarán verdades, se ajustarán cuentas, se hablará de amor y de resentimiento. Este drama lo dirige el japonés ganador de la Palma de Oro en Cannes Hirokazu Kore-eda.

Español Latino AC3 5.1 – Frances DTS 5.1

Ficha técnica

Video trailer de la película

Enlaces de descarga

Rip de Bluray

Descargar La Verdad (2019) PLACEBO Full HD 1080p Latino




Aportes de DPeliculasHDmega la pass es:dpeliculashdmega.org Aportes de CinemaniaHD la pass es:cinemaniahdd.com

Películas relacionadas

descargar La Verdad (2019) PLACEBO Full HD 1080p Latino Full 1080p 1080p gratis, La Verdad (2019) PLACEBO Full HD 1080p Latino Full 1080p mega 1 link, La Verdad (2019) PLACEBO Full HD 1080p Latino Full 1080p pelicula completa, descargar La Verdad (2019) PLACEBO Full HD 1080p Latino Full 1080p gratis en mega.

La Verdad (2019) PLACEBO Full HD 1080p Latino pelicula full hd, La Verdad (2019) PLACEBO Full HD 1080p Latino mega latino, La Verdad (2019) PLACEBO Full HD 1080p Latino 4k latino, La Verdad (2019) PLACEBO Full HD 1080p Latino pelicula completa, La Verdad (2019) PLACEBO Full HD 1080p Latino descargar gratis, descargar La Verdad (2019) PLACEBO Full HD 1080p Latino pelicula latino, La Verdad (2019) PLACEBO Full HD 1080p Latino 1 link mega, La Verdad (2019) PLACEBO Full HD 1080p Latino 1 link google drive, La Verdad (2019) PLACEBO Full HD 1080p Latino hd 1080p latino.
Comentarios 0