×

¿Problemas para descargar con Mozilla, EDGE? Deshabilita la opción "Abrir vinculos en una pestaña nueva" tal como lo muestra ésta imagen.

Piratas del Caribe: La Venganza de Salazar (2017) 4K UHD HDR Latino

2.090 vistas

Información de Piratas del Caribe: La Venganza de Salazar (2017) 4K UHD HDR Latino

Datos de la película

  • Calidad: 4K HDR
  • Audio: Español Latino AC3 5.1 BLURAY - Ingles AC3 5.1 BLURAY
  • Subtitulos: Español Latino PGS - Ingles PGS
  • Resolución: 3840x1600p
  • Formato: MKV
  • Codec: HEVC
  • Encoder: CinefiloCool
  • Mediainfo: Clic para Mostrar Datos Ver
  • P.o.t.C. - La Venganza de Salazar (2017) UHD HDR Latino-CMHDD.mkv
    Format                      : Matroska
    Format version              : Version 4
    File size                   : 17.2 GiB
    Duration                    : 2 h 9 min
    Overall bit rate            : 19.1 Mb/s
    Movie name                  : CinemaniaHDD.Net
    Encoded date                : UTC 2020-03-12 02:29:11
    Writing application         : mkvmerge v42.0.0 ('Overtime') 64-bit
    Writing library             : libebml v1.3.10 + libmatroska v1.5.2
    Attachments                 : CINEMANIAHD.png

    Video
    ID                          : 1
    Format                      : HEVC
    Format/Info                 : High Efficiency Video Coding
    Commercial name             : HDR10
    Format profile              : Main 10@L5.1@High
    Codec ID                    : V_MPEGH/ISO/HEVC
    Duration                    : 2 h 9 min
    Bit rate                    : 17.8 Mb/s
    Width                       : 3 840 pixels
    Height                      : 1 600 pixels
    Display aspect ratio        : 2.40:1
    Frame rate mode             : Constant
    Frame rate                  : 23.976 (24000/1001) FPS
    Color space                 : YUV
    Chroma subsampling          : 4:2:0 (Type 2)
    Bit depth                   : 10 bits
    Bits/(Pixel*Frame)          : 0.121
    Stream size                 : 16.0 GiB (93%)
    Title                       : 2160p HDR [Bluray]
    Writing library             : x265 2.5+38-8a121d8cc134:[Windows][GCC 6.2.1][64 bit] 10bit
    Encoding settings           : cpuid=1173503 / frame-threads=4 / numa-pools=16 / wpp / no-pmode / no-pme / no-psnr / no-ssim / log-level=2 / input-csp=1 / input-res=3840x1600 / interlace=0 / total-frames=185724 / level-idc=51 / high-tier=1 / uhd-bd=0 / ref=4 / no-allow-non-conformance / repeat-headers / annexb / aud / hrd / info / hash=0 / no-temporal-layers / no-open-gop / min-keyint=1 / keyint=24 / bframes=4 / b-adapt=2 / b-pyramid / bframe-bias=0 / rc-lookahead=25 / lookahead-slices=4 / scenecut=40 / no-intra-refresh / ctu=64 / min-cu-size=8 / rect / no-amp / max-tu-size=32 / tu-inter-depth=1 / tu-intra-depth=1 / limit-tu=0 / rdoq-level=2 / dynamic-rd=0.00 / no-ssim-rd / signhide / no-tskip / nr-intra=0 / nr-inter=0 / no-constrained-intra / no-strong-intra-smoothing / max-merge=3 / limit-refs=3 / limit-modes / me=3 / subme=3 / merange=57 / temporal-mvp / weightp / no-weightb / no-analyze-src-pics / deblock=-3:-3 / no-sao / no-sao-non-deblock / rd=4 / no-early-skip / rskip / no-fast-intra / no-tskip-fast / no-cu-lossless / no-b-intra / no-splitrd-skip / rdpenalty=0 / psy-rd=2.00 / psy-rdoq=1.00 / no-rd-refine / analysis-reuse-mode=0 / no-lossless / cbqpoffs=0 / crqpoffs=0 / rc=crf / crf=17.0 / qcomp=0.60 / qpstep=4 / stats-write=0 / stats-read=0 / vbv-maxrate=160000 / vbv-bufsize=160000 / vbv-init=0.9 / crf-max=0.0 / crf-min=0.0 / ipratio=1.40 / pbratio=1.30 / aq-mode=1 / aq-strength=1.00 / cutree / zone-count=0 / no-strict-cbr / qg-size=32 / no-rc-grain / qpmax=69 / qpmin=0 / no-const-vbv / sar=1 / overscan=0 / videoformat=5 / range=0 / colorprim=9 / transfer=16 / colormatrix=9 / chromaloc=1 / chromaloc-top=2 / chromaloc-bottom=2 / display-window=0 / master-display=G(13250,34500)B(7500,3000)R(34000,16000)WP(15635,16450)L(10000000,50) / max-cll=0,0 / min-luma=0 / max-luma=1023 / log2-max-poc-lsb=8 / vui-timing-info / vui-hrd-info / slices=1 / opt-qp-pps / opt-ref-list-length-pps / no-multi-pass-opt-rps / scenecut-bias=0.05 / no-opt-cu-delta-qp / no-aq-motion / hdr / hdr-opt / no-dhdr10-opt / analysis-reuse-level=5 / scale-factor=0 / refine-intra=0 / refine-inter=0 / refine-mv=0 / no-limit-sao / ctu-info=0 / no-lowpass-dct
    Default                     : Yes
    Forced                      : Yes
    Color range                 : Limited
    Color primaries             : BT.2020
    Transfer characteristics    : PQ
    Matrix coefficients         : BT.2020 non-constant
    Mastering display color pri : Display P3
    Mastering display luminance : min: 0.0050 cd/m2, max: 1000 cd/m2

    Audio #1
    ID                          : 2
    Format                      : AC-3
    Format/Info                 : Audio Coding 3
    Commercial name             : Dolby Digital
    Codec ID                    : A_AC3
    Duration                    : 2 h 9 min
    Bit rate mode               : Constant
    Bit rate                    : 640 kb/s
    Channel(s)                  : 6 channels
    Channel layout              : L R C LFE Ls Rs
    Sampling rate               : 48.0 kHz
    Frame rate                  : 31.250 FPS (1536 SPF)
    Bit depth                   : 16 bits
    Compression mode            : Lossy
    Stream size                 : 591 MiB (3%)
    Title                       : AC3_5.1_Bluray_Esp
    Language                    : Spanish
    Service kind                : Complete Main
    Default                     : Yes
    Forced                      : Yes

    Audio #2
    ID                          : 3
    Format                      : AC-3
    Format/Info                 : Audio Coding 3
    Commercial name             : Dolby Digital
    Codec ID                    : A_AC3
    Duration                    : 2 h 9 min
    Bit rate mode               : Constant
    Bit rate                    : 640 kb/s
    Channel(s)                  : 6 channels
    Channel layout              : L R C LFE Ls Rs
    Sampling rate               : 48.0 kHz
    Frame rate                  : 31.250 FPS (1536 SPF)
    Bit depth                   : 16 bits
    Compression mode            : Lossy
    Stream size                 : 591 MiB (3%)
    Title                       : AC3_5.1_Bluray_Eng
    Language                    : English
    Service kind                : Complete Main
    Default                     : No
    Forced                      : No

    Text #1
    ID                          : 4
    Format                      : PGS
    Muxing mode                 : zlib
    Codec ID                    : S_HDMV/PGS
    Codec ID/Info               : Picture based subtitle format used on BDs/HD-DVDs
    Duration                    : 1 h 2 min
    Bit rate                    : 327 b/s
    Count of elements           : 16
    Stream size                 : 150 KiB (0%)
    Title                       : Sub_Forzados [PGS]
    Language                    : Spanish
    Default                     : Yes
    Forced                      : Yes

    Text #2
    ID                          : 5
    Format                      : PGS
    Muxing mode                 : zlib
    Codec ID                    : S_HDMV/PGS
    Codec ID/Info               : Picture based subtitle format used on BDs/HD-DVDs
    Duration                    : 1 h 59 min
    Bit rate                    : 28.5 kb/s
    Count of elements           : 2638
    Stream size                 : 24.3 MiB (0%)
    Title                       : Sub_Esp [PGS]
    Language                    : Spanish
    Default                     : No
    Forced                      : No

    Text #3
    ID                          : 6
    Format                      : PGS
    Muxing mode                 : zlib
    Codec ID                    : S_HDMV/PGS
    Codec ID/Info               : Picture based subtitle format used on BDs/HD-DVDs
    Duration                    : 2 h 7 min
    Bit rate                    : 32.8 kb/s
    Count of elements           : 3544
    Stream size                 : 30.0 MiB (0%)
    Title                       : Sub_Eng [PGS]
    Language                    : English
    Default                     : No
    Forced                      : No

    Text #4
    ID                          : 7
    Format                      : UTF-8
    Codec ID                    : S_TEXT/UTF8
    Codec ID/Info               : UTF-8 Plain Text
    Duration                    : 1 h 2 min
    Bit rate                    : 0 b/s
    Count of elements           : 8
    Stream size                 : 147 Bytes (0%)
    Title                       : Sub_Forzados
    Language                    : Spanish
    Default                     : No
    Forced                      : No

    Text #5
    ID                          : 8
    Format                      : UTF-8
    Codec ID                    : S_TEXT/UTF8
    Codec ID/Info               : UTF-8 Plain Text
    Duration                    : 1 h 59 min
    Bit rate                    : 45 b/s
    Count of elements           : 1320
    Stream size                 : 39.6 KiB (0%)
    Title                       : Sub_Esp
    Language                    : Spanish
    Default                     : No
    Forced                      : No

    Menu
    00:00:00.000                : en:Father's Curse
    00:05:49.516                : en:"Arrest Him"
    00:08:34.222                : en:Captain Salazar
    00:13:40.820                : en:"Stop That Witch"
    00:16:29.155                : en:Runaway Bank
    00:22:33.852                : en:Bad Luck
    00:25:19.268                : en:"Hidden In The Stars"
    00:28:06.101                : en:"We Are Free"
    00:31:41.775                : en:Blood Moon
    00:33:44.814                : en:"Looking For A Pirate"
    00:37:02.053                : en:Barbossa's Treasure
    00:42:27.712                : en:"Final Words"
    00:49:09.071                : en:"Cordiality"
    00:54:00.279                : en:Bluffing
    00:57:19.394                : en:"Closer Than You Think"
    01:00:38.718                : en:Salazar's Story
    01:08:29.939                : en:Mutiny
    01:11:57.021                : en:Ghost Sharks
    01:16:50.940                : en:"Unscratchable Itch"
    01:19:27.471                : en:Wedding Day
    01:25:04.808                : en:"Just Believe Her"
    01:27:42.174                : en:"So You're An Orphan"
    01:31:43.790                : en:"Nowhere To Hide"
    01:38:22.814                : en:The Island
    01:42:36.776                : en:Poseidon's Trident
    01:47:23.562                : en:"All Must Divide"
    01:52:58.689                : en:"Let Me Tell You A Tale"
    01:59:09.934                : en:Credits

  • Peso: 17.2 GiB

Sinopsis

Descargar Piratas del Caribe: La Venganza de Salazar (2017) 4K UHD HDR Latino. El capitán Jack Sparrow se enfrentará a un grupo de piratas-fantasma comandados por una de sus viejas némesis, el terrorífico capitán Salazar, recién escapado del Triángulo de las Bermudas. La única posibilidad de Sparrow para salir con vida es encontrar el legendario Tridente de Poseidón, un poderoso artefacto que le da a su poseedor el control de los mares.

Ficha técnica

Video trailer de la película

Enlaces de descarga

Rip de Bluray

Descargar Piratas del Caribe: La Venganza de Salazar (2017) 4K UHD HDR Latino




Aportes de DPeliculasHDmega la pass es:dpeliculashdmega.org Aportes de CinemaniaHD la pass es:cinemaniahdd.com
Guardado en : 4K HDR , 4K UHD , Acción , Aventura , Comedia , Fantasía

Películas relacionadas

descargar Piratas del Caribe: La Venganza de Salazar (2017) 4K UHD HDR Latino 4K HDR 1080p gratis, Piratas del Caribe: La Venganza de Salazar (2017) 4K UHD HDR Latino 4K HDR mega 1 link, Piratas del Caribe: La Venganza de Salazar (2017) 4K UHD HDR Latino 4K HDR pelicula completa, descargar Piratas del Caribe: La Venganza de Salazar (2017) 4K UHD HDR Latino 4K HDR gratis en mega.

Piratas del Caribe: La Venganza de Salazar (2017) 4K UHD HDR Latino pelicula full hd, Piratas del Caribe: La Venganza de Salazar (2017) 4K UHD HDR Latino mega latino, Piratas del Caribe: La Venganza de Salazar (2017) 4K UHD HDR Latino 4k latino, Piratas del Caribe: La Venganza de Salazar (2017) 4K UHD HDR Latino pelicula completa, Piratas del Caribe: La Venganza de Salazar (2017) 4K UHD HDR Latino descargar gratis, descargar Piratas del Caribe: La Venganza de Salazar (2017) 4K UHD HDR Latino pelicula latino, Piratas del Caribe: La Venganza de Salazar (2017) 4K UHD HDR Latino 1 link mega, Piratas del Caribe: La Venganza de Salazar (2017) 4K UHD HDR Latino 1 link google drive, Piratas del Caribe: La Venganza de Salazar (2017) 4K UHD HDR Latino hd 1080p latino.
Comentarios 0