×

¿Problemas para descargar con Mozilla, EDGE? Deshabilita la opción "Abrir vinculos en una pestaña nueva" tal como lo muestra ésta imagen.

La Venganza De Los Nerds (1984) REMUX 1080p Latino – CMHDD

254 vistas

Información de La Venganza De Los Nerds (1984) REMUX 1080p Latino – CMHDD

Datos de la película

  • Calidad: Full 1080p
  • Audio: Se especifica abajo de la Sinopsis
  • Subtitulos: Español Latino SRT- FORZADOS SRT
  • Resolución: 1920x1080p
  • Formato: MKV
  • Codec: H.264
  • Encoder: Dracarrys
  • Mediainfo: Clic para Mostrar Datos Ver
  • Format                      : Matroska
    Format version              : Version 4
    File size                   : 24.7 GiB
    Duration                    : 1 h 30 min
    Overall bit rate mode       : Variable
    Overall bit rate            : 39.2 Mb/s
    Movie name                  : La Venganza De Los Nerds (1984) REMUX 1080p Latino - CMHDD
    Encoded date                : UTC 2020-07-01 05:45:08
    Writing application         : mkvmerge v46.0.0 ('No Deeper Escape') 64-bit
    Writing library             : libebml v1.3.10 + libmatroska v1.5.2

    Video
    ID                          : 1
    Format                      : AVC
    Format/Info                 : Advanced Video Codec
    Format profile              : High@L4.1
    Format settings             : CABAC / 4 Ref Frames
    Format settings, CABAC      : Yes
    Format settings, Reference  : 4 frames
    Codec ID                    : V_MPEG4/ISO/AVC
    Duration                    : 1 h 30 min
    Bit rate mode               : Variable
    Bit rate                    : 37.8 Mb/s
    Maximum bit rate            : 40.0 Mb/s
    Width                       : 1 920 pixels
    Height                      : 1 080 pixels
    Display aspect ratio        : 16:9
    Frame rate mode             : Constant
    Frame rate                  : 23.976 (24000/1001) FPS
    Color space                 : YUV
    Chroma subsampling          : 4:2:0
    Bit depth                   : 8 bits
    Scan type                   : Progressive
    Bits/(Pixel*Frame)          : 0.761
    Stream size                 : 23.8 GiB (97%)
    Default                     : Yes
    Forced                      : No

    Audio #1
    ID                          : 2
    Format                      : AC-3
    Format/Info                 : Audio Coding 3
    Commercial name             : Dolby Digital
    Codec ID                    : A_AC3
    Duration                    : 1 h 30 min
    Bit rate mode               : Constant
    Bit rate                    : 192 kb/s
    Channel(s)                  : 1 channel
    Channel layout              : C
    Sampling rate               : 48.0 kHz
    Frame rate                  : 31.250 FPS (1536 SPF)
    Compression mode            : Lossy
    Stream size                 : 124 MiB (0%)
    Language                    : Spanish
    Service kind                : Complete Main
    Default                     : Yes
    Forced                      : No

    Audio #2
    ID                          : 3
    Format                      : DTS XLL
    Format/Info                 : Digital Theater Systems
    Commercial name             : DTS-HD Master Audio
    Codec ID                    : A_DTS
    Duration                    : 1 h 30 min
    Bit rate mode               : Variable
    Bit rate                    : 1 117 kb/s
    Channel(s)                  : 1 channel
    Channel layout              : C
    Sampling rate               : 48.0 kHz
    Frame rate                  : 93.750 FPS (512 SPF)
    Bit depth                   : 24 bits
    Compression mode            : Lossless
    Stream size                 : 720 MiB (3%)
    Language                    : English
    Default                     : No
    Forced                      : No

    Text #1
    ID                          : 4
    Format                      : PGS
    Muxing mode                 : zlib
    Codec ID                    : S_HDMV/PGS
    Codec ID/Info               : Picture based subtitle format used on BDs/HD-DVDs
    Duration                    : 1 h 29 min
    Bit rate                    : 35.2 kb/s
    Count of elements           : 2022
    Stream size                 : 22.6 MiB (0%)
    Language                    : Spanish
    Default                     : No
    Forced                      : No

    Text #2
    ID                          : 5
    Format                      : UTF-8
    Codec ID                    : S_TEXT/UTF8
    Codec ID/Info               : UTF-8 Plain Text
    Duration                    : 1 h 29 min
    Bit rate                    : 56 b/s
    Count of elements           : 1011
    Stream size                 : 37.4 KiB (0%)
    Language                    : Spanish
    Default                     : No
    Forced                      : No

    Text #3
    ID                          : 6
    Format                      : UTF-8
    Codec ID                    : S_TEXT/UTF8
    Codec ID/Info               : UTF-8 Plain Text
    Duration                    : 1 h 29 min
    Bit rate                    : 1 b/s
    Count of elements           : 36
    Stream size                 : 913 Bytes (0%)
    Title                       : Forzados
    Language                    : Spanish
    Default                     : Yes
    Forced                      : No
     

  • Peso: 24.7 GiB

Sinopsis

En el Adams College, las reglas y la bromas, las ponen los deportistas de la fraternidad Alpha Beta. Por eso, cuando un grupo de inadaptados socialmente les desafia, inmediatamente son rechazados por todas las casas en el campus. Entonces toman la decisión de iniciar su propia fraternidad para proteger a sus hermanos marginados, los novatos del campus pronto se encuentran en una batalla real, cuando los Alpha Beta tratan de aplastar a sus nuevos rivales.

 

 

Latino: AC3 1.0 BD  –  Ingles: DTS-HD MA 1.0 BD

Ficha técnica

  • Titulo original: Revenge of the Nerds
  • Fecha de lanzamiento: 20-07-1984 (United States of America)
  • Director: Jeff Kanew
  • Género: Comedia, Remux

Video trailer de la película

Enlaces de descarga

Rip de Bluray

Descargar La Venganza De Los Nerds (1984) REMUX 1080p Latino – CMHDD




Aportes de DPeliculasHDmega la pass es:dpeliculashdmega.org Aportes de CinemaniaHD la pass es:cinemaniahdd.com
Guardado en : Comedia , Remux

Películas relacionadas

descargar La Venganza De Los Nerds (1984) REMUX 1080p Latino – CMHDD Full 1080p 1080p gratis, La Venganza De Los Nerds (1984) REMUX 1080p Latino – CMHDD Full 1080p mega 1 link, La Venganza De Los Nerds (1984) REMUX 1080p Latino – CMHDD Full 1080p pelicula completa, descargar La Venganza De Los Nerds (1984) REMUX 1080p Latino – CMHDD Full 1080p gratis en mega.

La Venganza De Los Nerds (1984) REMUX 1080p Latino – CMHDD pelicula full hd, La Venganza De Los Nerds (1984) REMUX 1080p Latino – CMHDD mega latino, La Venganza De Los Nerds (1984) REMUX 1080p Latino – CMHDD 4k latino, La Venganza De Los Nerds (1984) REMUX 1080p Latino – CMHDD pelicula completa, La Venganza De Los Nerds (1984) REMUX 1080p Latino – CMHDD descargar gratis, descargar La Venganza De Los Nerds (1984) REMUX 1080p Latino – CMHDD pelicula latino, La Venganza De Los Nerds (1984) REMUX 1080p Latino – CMHDD 1 link mega, La Venganza De Los Nerds (1984) REMUX 1080p Latino – CMHDD 1 link google drive, La Venganza De Los Nerds (1984) REMUX 1080p Latino – CMHDD hd 1080p latino.
Comentarios 0