×

¿Problemas para descargar con Mozilla, EDGE? Deshabilita la opción "Abrir vinculos en una pestaña nueva" tal como lo muestra ésta imagen.

La Venganza De Los Nerds (1984) HD 1080p Latino – CMHDD

354 vistas

Información de La Venganza De Los Nerds (1984) HD 1080p Latino – CMHDD

Datos de la película

  • Calidad: 1080p
  • Audio: Se especifica abajo de la Sinopsis
  • Subtitulos: Español Latino SRT- FORZADOS SRT
  • Resolución: 1920x1040p
  • Formato: MKV
  • Codec: H.264
  • Encoder: Dracarys
  • Mediainfo: Clic para Mostrar Datos Ver
  • Format                      : Matroska
    Format version              : Version 4
    File size                   : 2.43 GiB
    Duration                    : 1 h 30 min
    Overall bit rate            : 3 857 kb/s
    Movie name                  : La Venganza De Los Nerds (1984) HD 1080p Latino - CMHDD
    Encoded date                : UTC 2020-07-01 05:49:15
    Writing application         : mkvmerge v46.0.0 ('No Deeper Escape') 64-bit
    Writing library             : libebml v1.3.10 + libmatroska v1.5.2

    Video
    ID                          : 1
    Format                      : AVC
    Format/Info                 : Advanced Video Codec
    Format profile              : High@L4.1
    Format settings             : CABAC / 4 Ref Frames
    Format settings, CABAC      : Yes
    Format settings, Reference  : 4 frames
    Codec ID                    : V_MPEG4/ISO/AVC
    Duration                    : 1 h 30 min
    Bit rate                    : 3 500 kb/s
    Width                       : 1 920 pixels
    Height                      : 1 040 pixels
    Display aspect ratio        : 1.85:1
    Frame rate mode             : Constant
    Frame rate                  : 23.976 (24000/1001) FPS
    Color space                 : YUV
    Chroma subsampling          : 4:2:0
    Bit depth                   : 8 bits
    Scan type                   : Progressive
    Bits/(Pixel*Frame)          : 0.073
    Stream size                 : 2.16 GiB (89%)
    Writing library             : x264 core 157 r2935 545de2f
    Encoding settings           : cabac=1 / ref=4 / deblock=1:0:0 / analyse=0x3:0x113 / me=hex / subme=8 / psy=1 / psy_rd=1.00:0.00 / mixed_ref=1 / me_range=16 / chroma_me=1 / trellis=2 / 8x8dct=1 / cqm=0 / deadzone=21,11 / fast_pskip=1 / chroma_qp_offset=-2 / threads=24 / lookahead_threads=4 / sliced_threads=0 / nr=0 / decimate=1 / interlaced=0 / bluray_compat=0 / constrained_intra=0 / bframes=3 / b_pyramid=2 / b_adapt=1 / b_bias=0 / direct=3 / weightb=1 / open_gop=0 / weightp=2 / keyint=240 / keyint_min=24 / scenecut=40 / intra_refresh=0 / rc_lookahead=50 / rc=abr / mbtree=1 / bitrate=3500 / ratetol=1.0 / qcomp=0.60 / qpmin=0 / qpmax=69 / qpstep=4 / vbv_maxrate=62500 / vbv_bufsize=78125 / nal_hrd=none / filler=0 / ip_ratio=1.40 / aq=1:1.00
    Default                     : Yes
    Forced                      : No
    Color range                 : Limited
    Color primaries             : BT.709
    Transfer characteristics    : BT.709
    Matrix coefficients         : BT.709

    Audio #1
    ID                          : 2
    Format                      : AC-3
    Format/Info                 : Audio Coding 3
    Commercial name             : Dolby Digital
    Codec ID                    : A_AC3
    Duration                    : 1 h 30 min
    Bit rate mode               : Constant
    Bit rate                    : 192 kb/s
    Channel(s)                  : 1 channel
    Channel layout              : C
    Sampling rate               : 48.0 kHz
    Frame rate                  : 31.250 FPS (1536 SPF)
    Compression mode            : Lossy
    Delay relative to video     : -5 ms
    Stream size                 : 124 MiB (5%)
    Language                    : Spanish
    Service kind                : Complete Main
    Default                     : Yes
    Forced                      : No

    Audio #2
    ID                          : 3
    Format                      : AC-3
    Format/Info                 : Audio Coding 3
    Commercial name             : Dolby Digital
    Codec ID                    : A_AC3
    Duration                    : 1 h 30 min
    Bit rate mode               : Constant
    Bit rate                    : 224 kb/s
    Channel(s)                  : 2 channels
    Channel layout              : L R
    Sampling rate               : 48.0 kHz
    Frame rate                  : 31.250 FPS (1536 SPF)
    Compression mode            : Lossy
    Stream size                 : 144 MiB (6%)
    Language                    : English
    Service kind                : Complete Main
    Default                     : No
    Forced                      : No

    Text #1
    ID                          : 4
    Format                      : UTF-8
    Codec ID                    : S_TEXT/UTF8
    Codec ID/Info               : UTF-8 Plain Text
    Duration                    : 1 h 29 min
    Bit rate                    : 56 b/s
    Count of elements           : 1011
    Stream size                 : 37.4 KiB (0%)
    Language                    : Spanish
    Default                     : No
    Forced                      : No

    Text #2
    ID                          : 5
    Format                      : UTF-8
    Codec ID                    : S_TEXT/UTF8
    Codec ID/Info               : UTF-8 Plain Text
    Duration                    : 1 h 29 min
    Bit rate                    : 1 b/s
    Count of elements           : 36
    Stream size                 : 913 Bytes (0%)
    Title                       : Forzados
    Language                    : Spanish
    Default                     : Yes
    Forced                      : No

    Menu
    00:00:00.000                : :Chapter 1
    00:07:13.725                : :Chapter 2
    00:11:05.123                : :Chapter 3
    00:14:42.799                : :Chapter 4
    00:17:58.995                : :Chapter 5
    00:24:57.329                : :Chapter 6
    00:29:46.868                : :Chapter 7
    00:31:29.137                : :Chapter 8
    00:34:46.167                : :Chapter 9
    00:39:04.551                : :Chapter 10
    00:45:48.371                : :Chapter 11
    00:47:53.454                : :Chapter 12
    00:51:14.280                : :Chapter 13
    00:53:54.732                : :Chapter 14
    00:55:51.348                : :Chapter 15
    00:57:00.959                : :Chapter 16
    00:58:14.199                : :Chapter 17
    01:07:20.370                : :Chapter 18
    01:09:59.779                : :Chapter 19
    01:12:02.735                : :Chapter 20
    01:17:42.575                : :Chapter 21
    01:20:22.568                : :Chapter 22
    01:24:37.030                : :Chapter 23
    01:26:09.164                : :Chapter 24

  • Peso: 2.43 GiB

Sinopsis

En el Adams College, las reglas y la bromas, las ponen los deportistas de la fraternidad Alpha Beta. Por eso, cuando un grupo de inadaptados socialmente les desafia, inmediatamente son rechazados por todas las casas en el campus. Entonces toman la decisión de iniciar su propia fraternidad para proteger a sus hermanos marginados, los novatos del campus pronto se encuentran en una batalla real, cuando los Alpha Beta tratan de aplastar a sus nuevos rivales.

 

Latino: AC3 1.0 BD  –  Ingles: AC3 1.0 BD

Ficha técnica

  • Titulo original: Revenge of the Nerds
  • Fecha de lanzamiento: 20-07-1984 (United States of America)
  • Director: Jeff Kanew
  • Género: Comedia, HD 1080p

Video trailer de la película

Enlaces de descarga

Rip de Bluray

Descargar La Venganza De Los Nerds (1984) HD 1080p Latino – CMHDD




Aportes de DPeliculasHDmega la pass es:dpeliculashdmega.org Aportes de CinemaniaHD la pass es:cinemaniahdd.com
Guardado en : Comedia , HD 1080p

Películas relacionadas

  • Shrek 2 (2004) REMUX 4K HDR Latino – CMHDD

    Shrek 2 (2004) REMUX 4K HDR Latino – CMHDD

    2004
    Shrek 2 (2004) REMUX 4K HDR Latino – CMHDD

    1h 32m 2004

    Cuando Shrek y la princesa Fiona regresan de su luna de miel, los padres de ella los invitan a visitar...

    Director: Matt Aspbury

    Género: Animación

    Actores: Wendy Bilanski

  • Rick and Morty (2022) Temporada 6 WEB-DL 1080p Latino

    Rick and Morty (2022) Temporada 6 WEB-DL 1080p Latino

    2013
    Rick and Morty (2022) Temporada 6 WEB-DL 1080p Latino

    0h 22m 2013

    Comedia animada que narra las aventuras de un científico loco Rick Sánchez, que regresa después de...

    Director: Justin Roiland

    Género: Action & Adventure

    Actores: Spencer Grammer

  • Emily la criminal (2022) HD 1080p Latino

    Emily la criminal (2022) HD 1080p Latino

    2022
    Emily la criminal (2022) HD 1080p Latino

    1h 37m 2022

    Descargar Emily la criminal (2022) HD 1080p Latino. Emily, que tiene una deuda estudiantil y está excluida...

    Director: John Patton Ford

    Género: Crimen

    Actores: Theo Rossi

  • Herencia peligrosa (2022) HD 1080p Latino

    Herencia peligrosa (2022) HD 1080p Latino

    2022
    Herencia peligrosa (2022) HD 1080p Latino

    1h 34m 2022

    Descargar Herencia peligrosa (2022) HD 1080p Latino. Tres ladrones se hacen con el yate de lujo de una...

    Director: Declan Whitebloom

    Género: Acción

    Actores: Vernon Davis

  • Território Hostil (2022) HD 1080p Latino

    Território Hostil (2022) HD 1080p Latino

    2022
    Território Hostil (2022) HD 1080p Latino

    1h 34m 2022

    Descargar Território Hostil (2022) HD 1080p Latino. En los Estados Unidos posteriores a la guerra civil,...

    Director: Brian Presley

    Género: Drama

    Actores: Natalie Whittle

descargar La Venganza De Los Nerds (1984) HD 1080p Latino – CMHDD 1080p 1080p gratis, La Venganza De Los Nerds (1984) HD 1080p Latino – CMHDD 1080p mega 1 link, La Venganza De Los Nerds (1984) HD 1080p Latino – CMHDD 1080p pelicula completa, descargar La Venganza De Los Nerds (1984) HD 1080p Latino – CMHDD 1080p gratis en mega.

La Venganza De Los Nerds (1984) HD 1080p Latino – CMHDD pelicula full hd, La Venganza De Los Nerds (1984) HD 1080p Latino – CMHDD mega latino, La Venganza De Los Nerds (1984) HD 1080p Latino – CMHDD 4k latino, La Venganza De Los Nerds (1984) HD 1080p Latino – CMHDD pelicula completa, La Venganza De Los Nerds (1984) HD 1080p Latino – CMHDD descargar gratis, descargar La Venganza De Los Nerds (1984) HD 1080p Latino – CMHDD pelicula latino, La Venganza De Los Nerds (1984) HD 1080p Latino – CMHDD 1 link mega, La Venganza De Los Nerds (1984) HD 1080p Latino – CMHDD 1 link google drive, La Venganza De Los Nerds (1984) HD 1080p Latino – CMHDD hd 1080p latino.
Comentarios 2
  • Gian - 05 agosto, 2020

    Audio en ingles no es el correcto…

    • Dracarys - 06 agosto, 2020

      imposible