×

¿Problemas para descargar con Mozilla, EDGE? Deshabilita la opción "Abrir vinculos en una pestaña nueva" tal como lo muestra ésta imagen.

La Venganza De Los Nerds (1984) Full HD 1080p Latino – CMHDD

326 vistas

Información de La Venganza De Los Nerds (1984) Full HD 1080p Latino – CMHDD

Datos de la película

  • Calidad: Full 1080p
  • Audio: Se especifica abajo de la Sinopsis
  • Subtitulos: Español Latino SRT- FORZADOS SRT
  • Resolución: 1920x1080p
  • Formato: MKV
  • Codec: H.264
  • Encoder: Dracarys
  • Mediainfo: Clic para Mostrar Datos Ver
  • Format                      : Matroska
    Format version              : Version 4
    File size                   : 15.4 GiB
    Duration                    : 1 h 30 min
    Overall bit rate mode       : Variable
    Overall bit rate            : 24.4 Mb/s
    Movie name                  : La Venganza De Los Nerds (1984) Full HD 1080p Latino - CMHDD
    Encoded date                : UTC 2020-07-01 05:47:49
    Writing application         : mkvmerge v46.0.0 ('No Deeper Escape') 64-bit
    Writing library             : libebml v1.3.10 + libmatroska v1.5.2

    Video
    ID                          : 1
    Format                      : AVC
    Format/Info                 : Advanced Video Codec
    Format profile              : High@L4.1
    Format settings             : CABAC / 4 Ref Frames
    Format settings, CABAC      : Yes
    Format settings, Reference  : 4 frames
    Codec ID                    : V_MPEG4/ISO/AVC
    Duration                    : 1 h 30 min
    Bit rate                    : 23.1 Mb/s
    Width                       : 1 920 pixels
    Height                      : 1 080 pixels
    Display aspect ratio        : 16:9
    Frame rate mode             : Constant
    Frame rate                  : 23.976 (24000/1001) FPS
    Color space                 : YUV
    Chroma subsampling          : 4:2:0
    Bit depth                   : 8 bits
    Scan type                   : Progressive
    Bits/(Pixel*Frame)          : 0.464
    Stream size                 : 14.5 GiB (95%)
    Writing library             : x264 core 157 r2935 545de2f
    Encoding settings           : cabac=1 / ref=4 / deblock=1:0:0 / analyse=0x3:0x133 / me=tesa / subme=11 / psy=1 / psy_rd=1.00:0.00 / mixed_ref=1 / me_range=24 / chroma_me=1 / trellis=2 / 8x8dct=1 / cqm=0 / deadzone=21,11 / fast_pskip=0 / chroma_qp_offset=-2 / threads=24 / lookahead_threads=6 / sliced_threads=0 / nr=0 / decimate=1 / interlaced=0 / bluray_compat=0 / constrained_intra=0 / bframes=16 / b_pyramid=2 / b_adapt=2 / b_bias=0 / direct=3 / weightb=1 / open_gop=0 / weightp=2 / keyint=240 / keyint_min=24 / scenecut=40 / intra_refresh=0 / rc_lookahead=60 / rc=crf / mbtree=1 / crf=20.0 / qcomp=0.60 / qpmin=0 / qpmax=69 / qpstep=4 / vbv_maxrate=62500 / vbv_bufsize=78125 / crf_max=0.0 / nal_hrd=none / filler=0 / ip_ratio=1.40 / aq=1:1.00
    Default                     : Yes
    Forced                      : No
    Color range                 : Limited
    Color primaries             : BT.709
    Transfer characteristics    : BT.709
    Matrix coefficients         : BT.709

    Audio #1
    ID                          : 2
    Format                      : AC-3
    Format/Info                 : Audio Coding 3
    Commercial name             : Dolby Digital
    Codec ID                    : A_AC3
    Duration                    : 1 h 30 min
    Bit rate mode               : Constant
    Bit rate                    : 192 kb/s
    Channel(s)                  : 1 channel
    Channel layout              : C
    Sampling rate               : 48.0 kHz
    Frame rate                  : 31.250 FPS (1536 SPF)
    Compression mode            : Lossy
    Stream size                 : 124 MiB (1%)
    Language                    : Spanish
    Service kind                : Complete Main
    Default                     : Yes
    Forced                      : No

    Audio #2
    ID                          : 3
    Format                      : DTS XLL
    Format/Info                 : Digital Theater Systems
    Commercial name             : DTS-HD Master Audio
    Codec ID                    : A_DTS
    Duration                    : 1 h 30 min
    Bit rate mode               : Variable
    Bit rate                    : 1 117 kb/s
    Channel(s)                  : 1 channel
    Channel layout              : C
    Sampling rate               : 48.0 kHz
    Frame rate                  : 93.750 FPS (512 SPF)
    Bit depth                   : 24 bits
    Compression mode            : Lossless
    Stream size                 : 720 MiB (5%)
    Language                    : English
    Default                     : No
    Forced                      : No

    Text #1
    ID                          : 4
    Format                      : UTF-8
    Codec ID                    : S_TEXT/UTF8
    Codec ID/Info               : UTF-8 Plain Text
    Duration                    : 1 h 29 min
    Bit rate                    : 56 b/s
    Count of elements           : 1011
    Stream size                 : 37.4 KiB (0%)
    Language                    : Spanish
    Default                     : No
    Forced                      : No

    Text #2
    ID                          : 5
    Format                      : UTF-8
    Codec ID                    : S_TEXT/UTF8
    Codec ID/Info               : UTF-8 Plain Text
    Duration                    : 1 h 29 min
    Bit rate                    : 1 b/s
    Count of elements           : 36
    Stream size                 : 913 Bytes (0%)
    Title                       : Forzados
    Language                    : Spanish
    Default                     : Yes
    Forced                      : No

    Text #3
    ID                          : 6
    Format                      : PGS
    Muxing mode                 : zlib
    Codec ID                    : S_HDMV/PGS
    Codec ID/Info               : Picture based subtitle format used on BDs/HD-DVDs
    Duration                    : 1 h 29 min
    Bit rate                    : 35.2 kb/s
    Count of elements           : 2022
    Stream size                 : 22.6 MiB (0%)
    Language                    : Spanish
    Default                     : No
    Forced                      : No

    Menu
    00:00:00.000                : :Chapter 1
    00:07:13.725                : :Chapter 2
    00:11:05.123                : :Chapter 3
    00:14:42.799                : :Chapter 4
    00:17:58.995                : :Chapter 5
    00:24:57.329                : :Chapter 6
    00:29:46.868                : :Chapter 7
    00:31:29.137                : :Chapter 8
    00:34:46.167                : :Chapter 9
    00:39:04.551                : :Chapter 10
    00:45:48.371                : :Chapter 11
    00:47:53.454                : :Chapter 12
    00:51:14.280                : :Chapter 13
    00:53:54.732                : :Chapter 14
    00:55:51.348                : :Chapter 15
    00:57:00.959                : :Chapter 16
    00:58:14.199                : :Chapter 17
    01:07:20.370                : :Chapter 18
    01:09:59.779                : :Chapter 19
    01:12:02.735                : :Chapter 20
    01:17:42.575                : :Chapter 21
    01:20:22.568                : :Chapter 22
    01:24:37.030                : :Chapter 23
    01:26:09.164                : :Chapter 24

  • Peso: 15.4 GiB

Sinopsis

En el Adams College, las reglas y la bromas, las ponen los deportistas de la fraternidad Alpha Beta. Por eso, cuando un grupo de inadaptados socialmente les desafia, inmediatamente son rechazados por todas las casas en el campus. Entonces toman la decisión de iniciar su propia fraternidad para proteger a sus hermanos marginados, los novatos del campus pronto se encuentran en una batalla real, cuando los Alpha Beta tratan de aplastar a sus nuevos rivales.

 

Latino: AC3 1.0 BD  –  Ingles: DTS-HD MA 1.0 BD

Ficha técnica

Video trailer de la película

Enlaces de descarga

Rip de Bluray

Descargar La Venganza De Los Nerds (1984) Full HD 1080p Latino – CMHDD




Aportes de DPeliculasHDmega la pass es:dpeliculashdmega.org Aportes de CinemaniaHD la pass es:cinemaniahdd.com
Guardado en : Comedia , FULL 1080p Plateadas

Películas relacionadas

  • Zola (2020) HD 1080p Latino

    Zola (2020) HD 1080p Latino

    2020
    Zola (2020) HD 1080p Latino

    1h 26m 2020

    Descargar Zola (2020) HD 1080p Latino. Una camarera accede a acompañar a una bailarina exótica, su...

    Director: Sheri Davani

    Género: Comedia

    Actores: Ts Madison

  • Zola (2020) PLACEBO Full HD 1080p Latino

    Zola (2020) PLACEBO Full HD 1080p Latino

    2020
    Zola (2020) PLACEBO Full HD 1080p Latino

    1h 26m 2020

    Descargar Zola (2020) PLACEBO Full HD 1080p Latino. Una camarera accede a acompañar a una bailarina...

    Director: Sheri Davani

    Género: Comedia

    Actores: Ts Madison

  • Zola (2020) REMUX 1080p Latino

    Zola (2020) REMUX 1080p Latino

    2020
    Zola (2020) REMUX 1080p Latino

    1h 26m 2020

    Descargar Zola (2020) REMUX 1080p Latino. Una camarera accede a acompañar a una bailarina exótica,...

    Director: Sheri Davani

    Género: Comedia

    Actores: Ts Madison

descargar La Venganza De Los Nerds (1984) Full HD 1080p Latino – CMHDD Full 1080p 1080p gratis, La Venganza De Los Nerds (1984) Full HD 1080p Latino – CMHDD Full 1080p mega 1 link, La Venganza De Los Nerds (1984) Full HD 1080p Latino – CMHDD Full 1080p pelicula completa, descargar La Venganza De Los Nerds (1984) Full HD 1080p Latino – CMHDD Full 1080p gratis en mega.

La Venganza De Los Nerds (1984) Full HD 1080p Latino – CMHDD pelicula full hd, La Venganza De Los Nerds (1984) Full HD 1080p Latino – CMHDD mega latino, La Venganza De Los Nerds (1984) Full HD 1080p Latino – CMHDD 4k latino, La Venganza De Los Nerds (1984) Full HD 1080p Latino – CMHDD pelicula completa, La Venganza De Los Nerds (1984) Full HD 1080p Latino – CMHDD descargar gratis, descargar La Venganza De Los Nerds (1984) Full HD 1080p Latino – CMHDD pelicula latino, La Venganza De Los Nerds (1984) Full HD 1080p Latino – CMHDD 1 link mega, La Venganza De Los Nerds (1984) Full HD 1080p Latino – CMHDD 1 link google drive, La Venganza De Los Nerds (1984) Full HD 1080p Latino – CMHDD hd 1080p latino.
Comentarios 0