×

¿Problemas para descargar con Mozilla, EDGE? Deshabilita la opción "Abrir vinculos en una pestaña nueva" tal como lo muestra ésta imagen.

La Valentía de Molly Johnson (2021) WEB-DL 1080p Latino

29 vistas

Información de La Valentía de Molly Johnson (2021) WEB-DL 1080p Latino

Datos de la película

  • Calidad: WEBDL
  • Audio: Español Latino AC3 2.0 WEB-DL - Ingles AC3 5.1 WEB-DL
  • Subtitulos: Español Latino SRT- FORZADOS SRT
  • Resolución: 1912x796p
  • Formato: MKV
  • Codec: H.264
  • Encoder: Melkor
  • Mediainfo: Clic para Mostrar Datos Ver
  • La Valentía de Molly Johnson (2021) WebDL 1080p Latino.mkv
    Format                      : Matroska
    Format version              : Version 4
    File size                   : 5.50 GiB
    Duration                    : 1 h 48 min
    Overall bit rate            : 7 269 kb/s
    Movie name                  : The Drovers Wife the Legend of Molly Johnson (2021) CinemaniaHDD.Net
    Encoded date                : UTC 2022-11-04 06:28:53
    Writing application         : mkvmerge v56.1.0 ('My Friend') 64-bit
    Writing library             : libebml v1.4.2 + libmatroska v1.6.4
    Attachments                 : CINEMANIAHD.png

    Video
    ID                          : 1
    Format                      : AVC
    Format/Info                 : Advanced Video Codec
    Format profile              : High@L4
    Format settings             : CABAC / 5 Ref Frames
    Format settings, CABAC      : Yes
    Format settings, Reference  : 5 frames
    Codec ID                    : V_MPEG4/ISO/AVC
    Duration                    : 1 h 48 min
    Bit rate                    : 6 627 kb/s
    Width                       : 1 912 pixels
    Height                      : 796 pixels
    Display aspect ratio        : 2.40:1
    Frame rate mode             : Constant
    Frame rate                  : 24.000 FPS
    Color space                 : YUV
    Chroma subsampling          : 4:2:0
    Bit depth                   : 8 bits
    Scan type                   : Progressive
    Bits/(Pixel*Frame)          : 0.181
    Stream size                 : 5.01 GiB (91%)
    Title                       : Web HD1080p [CinemaniaHDD]
    Language                    : English
    Default                     : Yes
    Forced                      : Yes
    Color range                 : Limited
    Color primaries             : BT.709
    Transfer characteristics    : BT.709
    Matrix coefficients         : BT.709

    Audio #1
    ID                          : 2
    Format                      : AC-3
    Format/Info                 : Audio Coding 3
    Commercial name             : Dolby Digital
    Codec ID                    : A_AC3
    Duration                    : 1 h 48 min
    Bit rate mode               : Constant
    Bit rate                    : 256 kb/s
    Channel(s)                  : 2 channels
    Channel layout              : L R
    Sampling rate               : 48.0 kHz
    Frame rate                  : 31.250 FPS (1536 SPF)
    Compression mode            : Lossy
    Stream size                 : 198 MiB (4%)
    Title                       : Español Latino [CinemaniaHDD]
    Language                    : Spanish
    Service kind                : Complete Main
    Default                     : Yes
    Forced                      : Yes

    Audio #2
    ID                          : 3
    Format                      : AC-3
    Format/Info                 : Audio Coding 3
    Commercial name             : Dolby Digital
    Codec ID                    : A_AC3
    Duration                    : 1 h 48 min
    Bit rate mode               : Constant
    Bit rate                    : 384 kb/s
    Channel(s)                  : 6 channels
    Channel layout              : L R C LFE Ls Rs
    Sampling rate               : 48.0 kHz
    Frame rate                  : 31.250 FPS (1536 SPF)
    Compression mode            : Lossy
    Stream size                 : 297 MiB (5%)
    Title                       : Ingles [CinemaniaHDD]
    Language                    : English
    Service kind                : Complete Main
    Default                     : No
    Forced                      : No

    Text #1
    ID                          : 4
    Format                      : UTF-8
    Codec ID                    : S_TEXT/UTF8
    Codec ID/Info               : UTF-8 Plain Text
    Duration                    : 1 h 37 min
    Bit rate                    : 0 b/s
    Count of elements           : 4
    Stream size                 : 141 Bytes (0%)
    Title                       : Forzados-SRT [CinemaniaHDD]
    Language                    : Spanish
    Default                     : Yes
    Forced                      : Yes

    Text #2
    ID                          : 5
    Format                      : UTF-8
    Codec ID                    : S_TEXT/UTF8
    Codec ID/Info               : UTF-8 Plain Text
    Duration                    : 1 h 37 min
    Bit rate                    : 41 b/s
    Count of elements           : 905
    Stream size                 : 29.7 KiB (0%)
    Title                       : Español-SRT [CinemaniaHDD]
    Language                    : Spanish
    Default                     : No
    Forced                      : No

    Text #3
    ID                          : 6
    Format                      : UTF-8
    Codec ID                    : S_TEXT/UTF8
    Codec ID/Info               : UTF-8 Plain Text
    Duration                    : 1 h 22 min
    Bit rate                    : 43 b/s
    Count of elements           : 920
    Stream size                 : 26.5 KiB (0%)
    Title                       : Ingles-SRT [CinemaniaHDD]
    Language                    : English
    Default                     : No
    Forced                      : No

    Menu
    00:00:00.000                : Chapter 1
    00:14:04.083                : Chapter 2
    00:29:16.208                : Chapter 3
    00:46:19.166                : Chapter 4
    01:01:22.458                : Chapter 5
    01:14:01.791                : Chapter 6
    01:27:27.458                : Chapter 7

  • Peso: 5.50 GiB

Sinopsis

Descargar La Valentía de Molly Johnson (2021) WEB-DL 1080p Latino. Una granjera solitaria lucha por sacar adelante a sus hijos y gestionar la granja familiar después de que su marido se haya marchado.

Ficha técnica

Video trailer de la película

Enlaces de descarga

Rip de Bluray

Descargar La Valentía de Molly Johnson (2021) WEB-DL 1080p Latino




Aportes de DPeliculasHDmega la pass es:dpeliculashdmega.org Aportes de CinemaniaHD la pass es:cinemaniahdd.com
Guardado en : Drama , Suspenso , Western

Películas relacionadas

descargar La Valentía de Molly Johnson (2021) WEB-DL 1080p Latino WEBDL 1080p gratis, La Valentía de Molly Johnson (2021) WEB-DL 1080p Latino WEBDL mega 1 link, La Valentía de Molly Johnson (2021) WEB-DL 1080p Latino WEBDL pelicula completa, descargar La Valentía de Molly Johnson (2021) WEB-DL 1080p Latino WEBDL gratis en mega.

La Valentía de Molly Johnson (2021) WEB-DL 1080p Latino pelicula full hd, La Valentía de Molly Johnson (2021) WEB-DL 1080p Latino mega latino, La Valentía de Molly Johnson (2021) WEB-DL 1080p Latino 4k latino, La Valentía de Molly Johnson (2021) WEB-DL 1080p Latino pelicula completa, La Valentía de Molly Johnson (2021) WEB-DL 1080p Latino descargar gratis, descargar La Valentía de Molly Johnson (2021) WEB-DL 1080p Latino pelicula latino, La Valentía de Molly Johnson (2021) WEB-DL 1080p Latino 1 link mega, La Valentía de Molly Johnson (2021) WEB-DL 1080p Latino 1 link google drive, La Valentía de Molly Johnson (2021) WEB-DL 1080p Latino hd 1080p latino.
Comentarios 0