La última chica (2015) Full 1080p Latino

694 vistas
1 estrella2 estrellas3 estrellas4 estrellas5 estrellas (1 votos, promedio: 5,00 de 5)
Cargando…

Información de La última chica (2015) Full 1080p Latino

Datos de la película

  • Calidad: Full 1080p
  • Audio: Español Latino AC3 5.1 BLURAY - Ingles DTS 5.1 BLURAY
  • Subtitulos: Español Latino PGS - Ingles PGS
  • Resolución: 1920x1080p
  • Formato: MKV
  • Codec: H.264
  • Encoder: Dracarys
  • Mediainfo: Clic para Mostrar Datos Ver
  • Format                                   : Matroska
    Format version                           : Version 4 / Version 2
    File size                                : 3.61 GiB
    Duration                                 : 1 h 31 min
    Overall bit rate                         : 5 651 kb/s
    Movie name                               : CinemaniaHDD.net
    Encoded date                             : UTC 2018-11-25 01:56:43 / UTC 2018-11-23T01:08:50Z
    Writing application                      : mkvmerge v15.0.0 ('Duel with the Devil') 64-bit
    Writing library                          : libebml v1.3.5 + libmatroska v1.4.5 / Lavf57.7.2

    Video
    ID                                       : 1
    Format                                   : AVC
    Format/Info                              : Advanced Video Codec
    Format profile                           : High@L4.1
    Format settings                          : CABAC / 4 Ref Frames
    Format settings, CABAC                   : Yes
    Format settings, RefFrames               : 4 frames
    Codec ID                                 : V_MPEG4/ISO/AVC
    Duration                                 : 1 h 31 min
    Bit rate                                 : 3 389 kb/s
    Width                                    : 1 920 pixels
    Height                                   : 1 080 pixels
    Display aspect ratio                     : 16:9
    Frame rate mode                          : Constant
    Frame rate                               : 23.976 (24000/1001) FPS
    Color space                              : YUV
    Chroma subsampling                       : 4:2:0
    Bit depth                                : 8 bits
    Scan type                                : Progressive
    Bits/(Pixel*Frame)                       : 0.068
    Stream size                              : 2.16 GiB (60%)
    Writing library                          : x264 core 148 r2708 86b7198
    Encoding settings                        : cabac=1 / ref=4 / deblock=1:0:0 / analyse=0x3:0x133 / me=esa / subme=10 / psy=1 / psy_rd=1.00:0.00 / mixed_ref=1 / me_range=24 / chroma_me=1 / trellis=2 / 8x8dct=1 / cqm=0 / deadzone=21,11 / fast_pskip=1 / chroma_qp_offset=-2 / threads=34 / lookahead_threads=5 / sliced_threads=0 / nr=0 / decimate=1 / interlaced=0 / bluray_compat=0 / constrained_intra=0 / bframes=8 / b_pyramid=2 / b_adapt=2 / b_bias=0 / direct=3 / weightb=1 / open_gop=0 / weightp=2 / keyint=240 / keyint_min=24 / scenecut=40 / intra_refresh=0 / rc_lookahead=60 / rc=crf / mbtree=1 / crf=20.0 / qcomp=0.60 / qpmin=0 / qpmax=69 / qpstep=4 / vbv_maxrate=62500 / vbv_bufsize=78125 / crf_max=0.0 / nal_hrd=none / filler=0 / ip_ratio=1.40 / aq=1:1.00
    Language                                 : English
    Default                                  : Yes
    Forced                                   : No
    Color range                              : Limited
    Color primaries                          : BT.709
    Transfer characteristics                 : BT.709
    Matrix coefficients                      : BT.709
    Statistics Tags Issue                    : mkvmerge v15.0.0 ('Duel with the Devil') 64-bit 2018-11-25 01:56:43 / mkvmerge v15.0.0 ('Duel with the Devil') 64-bit 2018-11-25 01:56:43 / UTC 2018-11-23T01:08:50Z
    FromStats_BitRate                        : 3460024
    FromStats_Duration                       : 01:31:20.434000000
    FromStats_FrameCount                     : 131399
    FromStats_StreamSize                     : 2370304308

    Audio #1
    ID                                       : 2
    Format                                   : AC-3
    Format/Info                              : Audio Coding 3
    Format settings, Endianness              : Big
    Codec ID                                 : A_AC3
    Duration                                 : 1 h 31 min
    Bit rate mode                            : Constant
    Bit rate                                 : 640 kb/s
    Channel(s)                               : 6 channels
    Channel positions                        : Front: L C R, Side: L R, LFE
    Sampling rate                            : 48.0 kHz
    Frame rate                               : 31.250 FPS (1536 SPF)
    Bit depth                                : 16 bits
    Compression mode                         : Lossy
    Stream size                              : 418 MiB (11%)
    Language                                 : Spanish
    Service kind                             : Complete Main
    Default                                  : Yes
    Forced                                   : No
    Statistics Tags Issue                    : mkvmerge v15.0.0 ('Duel with the Devil') 64-bit 2018-11-25 01:56:43 / mkvmerge v15.0.0 ('Duel with the Devil') 64-bit 2018-11-25 01:56:43 / UTC 2018-11-23T01:08:50Z
    FromStats_BitRate                        : 640000
    FromStats_Duration                       : 01:31:20.480000000
    FromStats_FrameCount                     : 171265
    FromStats_StreamSize                     : 438438400

    Audio #2
    ID                                       : 3
    Format                                   : DTS
    Format/Info                              : Digital Theater Systems
    Mode                                     : 16
    Format settings, Endianness              : Big
    Codec ID                                 : A_DTS
    Duration                                 : 1 h 31 min
    Bit rate mode                            : Constant
    Bit rate                                 : 1 509 kb/s
    Channel(s)                               : 6 channels
    Channel positions                        : Front: L C R, Side: L R, LFE
    Sampling rate                            : 48.0 kHz
    Frame rate                               : 93.750 FPS (512 SPF)
    Bit depth                                : 16 bits
    Compression mode                         : Lossy
    Delay relative to video                  : 11 ms
    Stream size                              : 986 MiB (27%)
    Language                                 : English
    Default                                  : No
    Forced                                   : No
    Statistics Tags Issue                    : mkvmerge v15.0.0 ('Duel with the Devil') 64-bit 2018-11-25 01:56:43 / mkvmerge v15.0.0 ('Duel with the Devil') 64-bit 2018-11-25 01:56:43 / UTC 2018-11-23T01:08:50Z
    FromStats_BitRate                        : 1508999
    FromStats_Duration                       : 01:31:20.459000000
    FromStats_FrameCount                     : 513793
    FromStats_StreamSize                     : 1033751516

    Text #1
    ID                                       : 4
    Format                                   : PGS
    Muxing mode                              : zlib
    Codec ID                                 : S_HDMV/PGS
    Codec ID/Info                            : Picture based subtitle format used on BDs/HD-DVDs
    Language                                 : English
    Default                                  : No
    Forced                                   : No
    Statistics Tags Issue                    : mkvmerge v15.0.0 ('Duel with the Devil') 64-bit 2018-11-25 01:56:43 / mkvmerge v15.0.0 ('Duel with the Devil') 64-bit 2018-11-25 01:56:43 / UTC 2018-11-23T01:08:50Z
    FromStats_BitRate                        : 38451
    FromStats_Duration                       : 01:25:28.373000000
    FromStats_FrameCount                     : 3049
    FromStats_StreamSize                     : 24648966

    Text #2
    ID                                       : 5
    Format                                   : PGS
    Muxing mode                              : zlib
    Codec ID                                 : S_HDMV/PGS
    Codec ID/Info                            : Picture based subtitle format used on BDs/HD-DVDs
    Language                                 : Spanish
    Default                                  : No
    Forced                                   : No
    Statistics Tags Issue                    : mkvmerge v15.0.0 ('Duel with the Devil') 64-bit 2018-11-25 01:56:43 / mkvmerge v15.0.0 ('Duel with the Devil') 64-bit 2018-11-25 01:56:43 / UTC 2018-11-23T01:08:50Z
    FromStats_BitRate                        : 35052
    FromStats_Duration                       : 01:30:08.028000000
    FromStats_FrameCount                     : 2058
    FromStats_StreamSize                     : 23695481

    Text #3
    ID                                       : 6
    Format                                   : PGS
    Muxing mode                              : zlib
    Codec ID                                 : S_HDMV/PGS
    Codec ID/Info                            : Picture based subtitle format used on BDs/HD-DVDs
    Title                                    : Forzados
    Language                                 : Spanish
    Default                                  : Yes
    Forced                                   : Yes
    Statistics Tags Issue                    : mkvmerge v15.0.0 ('Duel with the Devil') 64-bit 2018-11-25 01:56:43 / mkvmerge v15.0.0 ('Duel with the Devil') 64-bit 2018-11-25 01:56:43 / UTC 2018-11-23T01:08:50Z
    FromStats_BitRate                        : 72805
    FromStats_Duration                       : 01:30:02.022000000
    FromStats_FrameCount                     : 3688
    FromStats_StreamSize                     : 49162040

    Menu
    00:00:00.000                             : :Chapter 1
    00:05:51.351                             : :Chapter 2
    00:09:36.326                             : :Chapter 3
    00:17:25.127                             : :Chapter 4
    00:22:15.084                             : :Chapter 5
    00:27:19.346                             : :Chapter 6
    00:32:35.662                             : :Chapter 7
    00:37:59.194                             : :Chapter 8
    00:44:01.305                             : :Chapter 9
    00:48:59.895                             : :Chapter 10
    00:54:48.160                             : :Chapter 11
    00:58:59.494                             : :Chapter 12
    01:04:51.721                             : :Chapter 13
    01:08:11.754                             : :Chapter 14
    01:14:23.668                             : :Chapter 15
    01:19:56.834                             : :Chapter 16

     

  • Peso: 3.61 GiB

Sinopsis

Un grupo de amigos son absorbidos por una pantalla de cine para encontrarse en medio de un slasher ochentero en el que se convertirán en las víctimas del psycho-killer de la película.

Ficha técnica

Video trailer de la película

Enlaces de descarga

Rip de Bluray

Descargar La última chica (2015) Full 1080p Latino




Aportes de DPeliculasHDmega la pass es:dpeliculashdmega.org Aportes de CinemaniaHD la pass es:cinemaniahdd.com

Películas relacionadas

  • Escuela Nocturnas (2018) WEBDL 1080p Latino

    2018
    Escuela Nocturnas (2018) WEBDL 1080p Latino

    0.0 1h 51m 2018

    A Teddy Walker (Kevin Hart) le acaban de decir que tiene dislexia, además de otras discapacidades de...

    Director: Malcolm D. Lee

    Género: Comedia

    Actores: Yvonne Orji

  • Leprechaun Returns (2018) WEBDL 1080p Latino

    2019
    Leprechaun Returns (2018) WEBDL 1080p Latino

    0.0 1h 32m 2019

    Un grupo de hermanas de la hermandad involuntaria despiertan accidentalmente al Leprechaun asesino en...

    Director: Steven Kostanski

    Género: Comedia

    Actores: Taylor Spreitler

  • Duro de matar 4.0 (2007) Full 1080p Latino

    2007
    Duro de matar 4.0 (2007) Full 1080p Latino

    5.0 2h 8m 2007

    En Estados Unidos, la infraestructura de ordenadores que controla todo tipo de comunicaciones, transportes...

    Director: Len Wiseman

    Género: Acción

    Actores: Zeljko Ivanek

Comentarios 0