×

¿Problemas para descargar con Mozilla, EDGE? Deshabilita la opción "Abrir vinculos en una pestaña nueva" tal como lo muestra ésta imagen.

La última carta de Amor (2021) REMUX 1080p Latino

87 vistas

Información de La última carta de Amor (2021) REMUX 1080p Latino

Datos de la película

  • Calidad: Full 1080p
  • Audio: Se especifica abajo de la Sinopsis
  • Subtitulos: Español Latino SRT- FORZADOS SRT
  • Resolución: 1920x1080p
  • Formato: MKV
  • Codec: H.264
  • Encoder: Melkor
  • Mediainfo: Clic para Mostrar Datos Ver
  • La Ultima Carta De Amor (2021) REMUX 1080p Latino.mkv
    Format                      : Matroska
    Format version              : Version 4
    File size                   : 30.8 GiB
    Duration                    : 1 h 49 min
    Overall bit rate mode       : Variable
    Overall bit rate            : 40.4 Mb/s
    Movie name                  : The Last Letter from Your Lover (2021) CinemaniaHDD.Net
    Encoded date                : UTC 2021-11-17 04:07:59
    Writing application         : mkvmerge v56.1.0 ('My Friend') 64-bit
    Writing library             : libebml v1.4.2 + libmatroska v1.6.4
    Attachments                 : CINEMANIAHD.png

    Video
    ID                          : 1
    ID in the original source m : 4113 (0x1011)
    Format                      : AVC
    Format/Info                 : Advanced Video Codec
    Format profile              : High@L4.1
    Format settings             : CABAC / 4 Ref Frames
    Format settings, CABAC      : Yes
    Format settings, Reference  : 4 frames
    Codec ID                    : V_MPEG4/ISO/AVC
    Duration                    : 1 h 49 min
    Bit rate mode               : Variable
    Bit rate                    : 35.6 Mb/s
    Maximum bit rate            : 37.0 Mb/s
    Width                       : 1 920 pixels
    Height                      : 1 080 pixels
    Display aspect ratio        : 16:9
    Frame rate mode             : Constant
    Frame rate                  : 24.000 FPS
    Color space                 : YUV
    Chroma subsampling          : 4:2:0
    Bit depth                   : 8 bits
    Scan type                   : Progressive
    Bits/(Pixel*Frame)          : 0.715
    Stream size                 : 27.2 GiB (88%)
    Title                       : REMUX HD1080p [CinemaniaHDD]
    Language                    : English
    Default                     : Yes
    Forced                      : Yes
    Original source medium      : Blu-ray

    Audio #1
    ID                          : 2
    Format                      : AC-3
    Format/Info                 : Audio Coding 3
    Commercial name             : Dolby Digital
    Codec ID                    : A_AC3
    Duration                    : 1 h 49 min
    Bit rate mode               : Constant
    Bit rate                    : 640 kb/s
    Channel(s)                  : 6 channels
    Channel layout              : L R C LFE Ls Rs
    Sampling rate               : 48.0 kHz
    Frame rate                  : 31.250 FPS (1536 SPF)
    Compression mode            : Lossy
    Stream size                 : 500 MiB (2%)
    Title                       : Español Latino AC3 [CinemaniaHDD]
    Language                    : Spanish
    Service kind                : Complete Main
    Default                     : Yes
    Forced                      : Yes

    Audio #2
    ID                          : 3
    ID in the original source m : 4353 (0x1101)
    Format                      : DTS XLL
    Format/Info                 : Digital Theater Systems
    Commercial name             : DTS-HD Master Audio
    Codec ID                    : A_DTS
    Duration                    : 1 h 49 min
    Bit rate mode               : Variable
    Bit rate                    : 3 544 kb/s
    Channel(s)                  : 6 channels
    Channel layout              : C L R Ls Rs LFE
    Sampling rate               : 48.0 kHz
    Frame rate                  : 93.750 FPS (512 SPF)
    Bit depth                   : 24 bits
    Compression mode            : Lossless
    Stream size                 : 2.71 GiB (9%)
    Title                       : Ingles [CinemaniaHDD]
    Language                    : English
    Default                     : No
    Forced                      : No
    Original source medium      : Blu-ray

    Audio #3
    ID                          : 4
    Format                      : E-AC-3
    Format/Info                 : Enhanced AC-3
    Commercial name             : Dolby Digital Plus
    Codec ID                    : A_EAC3
    Duration                    : 1 h 49 min
    Bit rate mode               : Constant
    Bit rate                    : 640 kb/s
    Channel(s)                  : 6 channels
    Channel layout              : L R C LFE Ls Rs
    Sampling rate               : 48.0 kHz
    Frame rate                  : 31.250 FPS (1536 SPF)
    Compression mode            : Lossy
    Stream size                 : 500 MiB (2%)
    Title                       : Español Latino EAC3 [CinemaniaHDD]
    Language                    : Spanish
    Service kind                : Complete Main
    Default                     : No
    Forced                      : No

    Text #1
    ID                          : 5
    Format                      : UTF-8
    Codec ID                    : S_TEXT/UTF8
    Codec ID/Info               : UTF-8 Plain Text
    Duration                    : 1 h 48 min
    Bit rate                    : 1 b/s
    Count of elements           : 40
    Stream size                 : 1 015 Bytes (0%)
    Title                       : Forzados-SRT [CinemaniaHDD]
    Language                    : Spanish
    Default                     : Yes
    Forced                      : Yes

    Text #2
    ID                          : 6
    Format                      : UTF-8
    Codec ID                    : S_TEXT/UTF8
    Codec ID/Info               : UTF-8 Plain Text
    Duration                    : 1 h 48 min
    Bit rate                    : 43 b/s
    Count of elements           : 1056
    Stream size                 : 34.5 KiB (0%)
    Title                       : Español-SRT [CinemaniaHDD]
    Language                    : Spanish
    Default                     : No
    Forced                      : No

    Text #3
    ID                          : 7
    ID in the original source m : 4608 (0x1200)
    Format                      : PGS
    Muxing mode                 : zlib
    Codec ID                    : S_HDMV/PGS
    Codec ID/Info               : Picture based subtitle format used on BDs/HD-DVDs
    Duration                    : 1 h 45 min
    Bit rate                    : 38.2 kb/s
    Count of elements           : 3094
    Stream size                 : 28.8 MiB (0%)
    Title                       : Ingles [CinemaniaHDD]
    Language                    : English
    Default                     : No
    Forced                      : No
    Original source medium      : Blu-ray

    Menu
    00:00:00.000                : Chapter 01
    00:05:04.208                : Chapter 02
    00:13:11.666                : Chapter 03
    00:24:25.083                : Chapter 04
    00:34:53.916                : Chapter 05
    00:42:37.791                : Chapter 06
    00:53:37.958                : Chapter 07
    01:02:52.833                : Chapter 08
    01:12:25.291                : Chapter 09
    01:24:19.458                : Chapter 10
    01:33:45.083                : Chapter 11
    01:40:46.375                : Chapter 12

  • Peso: 30.8 GiB

Sinopsis

Descargar La última carta de Amor (2021) REMUX 1080p Latino. Ellie Haworth (Felicity Jones) es una ambiciosa periodista que descubre un tesoro de cartas secretas de amor de 1965 y decide resolver el misterio de esta aventura prohibida. A medida que descubre la historia que hay detrás de Jennifer Stirling (Shailene Woodley), la mujer de un acaudalado empresario, y Anthony O’Hare (Callum Turner), el periodista financiero nombrado para cubrir su vida, la historia de amor de la propia Ellie comienza a desarrollarse con la ayuda de un archivista serio y adorable (Nabhaan Rizwan) que la ayuda a localizar más cartas.

Español Latino EAC3 & AC3 5.1 WebDL – Ingles DTS-HD 5.1 BD

Ficha técnica

Video trailer de la película

Enlaces de descarga

Rip de Bluray

Descargar La última carta de Amor (2021) REMUX 1080p Latino




Aportes de DPeliculasHDmega la pass es:dpeliculashdmega.org Aportes de CinemaniaHD la pass es:cinemaniahdd.com
Guardado en : Drama , Remux , Romance

Películas relacionadas

descargar La última carta de Amor (2021) REMUX 1080p Latino Full 1080p 1080p gratis, La última carta de Amor (2021) REMUX 1080p Latino Full 1080p mega 1 link, La última carta de Amor (2021) REMUX 1080p Latino Full 1080p pelicula completa, descargar La última carta de Amor (2021) REMUX 1080p Latino Full 1080p gratis en mega.

La última carta de Amor (2021) REMUX 1080p Latino pelicula full hd, La última carta de Amor (2021) REMUX 1080p Latino mega latino, La última carta de Amor (2021) REMUX 1080p Latino 4k latino, La última carta de Amor (2021) REMUX 1080p Latino pelicula completa, La última carta de Amor (2021) REMUX 1080p Latino descargar gratis, descargar La última carta de Amor (2021) REMUX 1080p Latino pelicula latino, La última carta de Amor (2021) REMUX 1080p Latino 1 link mega, La última carta de Amor (2021) REMUX 1080p Latino 1 link google drive, La última carta de Amor (2021) REMUX 1080p Latino hd 1080p latino.
Comentarios 0