×

¿Problemas para descargar con Mozilla, EDGE? Deshabilita la opción "Abrir vinculos en una pestaña nueva" tal como lo muestra ésta imagen.

La sociedad de la nieve (2023) NF WEB-DL 1080p Latino

117 vistas

Información de La sociedad de la nieve (2023) NF WEB-DL 1080p Latino

Datos de la película

  • Calidad: WEBDL
  • Audio: Español Latino AC3 5.1 Netflix
  • Subtitulos: Español Latino SRT - Ingles SRT
  • Resolución: 1920x1080p
  • Formato: MKV
  • Codec: H.264
  • Encoder: Melkor
  • Mediainfo: Clic para Mostrar Datos Ver
  • La Sociedad De La Nieve (2024) NF WEB 1080p Latino.mkv
    Format                      : Matroska
    Format version              : Version 4
    File size                   : 8.98 GiB
    Duration                    : 2 h 25 min
    Overall bit rate mode       : Variable
    Overall bit rate            : 8 837 kb/s
    Movie name                  : La Sociedad De La Nieve (2024)  CinemaniaHDD.Net
    Encoded date                : UTC 2024-01-05 05:29:27
    Writing application         : mkvmerge v59.0.0 ('Shining Star') 64-bit
    Writing library             : libebml v1.4.2 + libmatroska v1.6.4
    Attachments                 : CINEMANIAHD.png
    Site                        : CinemaniaHDD.Net
    Uploader                    : Melkor

    Video
    ID                          : 1
    Format                      : AVC
    Format/Info                 : Advanced Video Codec
    Format profile              : High@L4
    Format settings             : CABAC / 4 Ref Frames
    Format settings, CABAC      : Yes
    Format settings, Reference  : 4 frames
    Codec ID                    : V_MPEG4/ISO/AVC
    Duration                    : 2 h 25 min
    Bit rate mode               : Variable
    Bit rate                    : 8 067 kb/s
    Maximum bit rate            : 20.0 Mb/s
    Width                       : 1 920 pixels
    Height                      : 1 080 pixels
    Display aspect ratio        : 16:9
    Frame rate mode             : Constant
    Frame rate                  : 24.000 FPS
    Color space                 : YUV
    Chroma subsampling          : 4:2:0
    Bit depth                   : 8 bits
    Scan type                   : Progressive
    Bits/(Pixel*Frame)          : 0.162
    Stream size                 : 8.20 GiB (91%)
    Title                       : WEB HD1080p [CinemaniaHDD]
    Writing library             : x264 core 148 r2727 7d026e8
    Encoding settings           : cabac=1 / ref=4 / deblock=1:0:0 / analyse=0x3:0x111 / me=umh / subme=10 / psy=1 / psy_rd=1.00:0.00 / mixed_ref=1 / me_range=120 / chroma_me=1 / trellis=2 / 8x8dct=1 / cqm=0 / deadzone=21,11 / fast_pskip=1 / chroma_qp_offset=-2 / threads=6 / lookahead_threads=1 / sliced_threads=0 / nr=0 / decimate=1 / interlaced=0 / bluray_compat=0 / stitchable=1 / constrained_intra=0 / bframes=16 / b_pyramid=2 / b_adapt=2 / b_bias=0 / direct=3 / weightb=1 / open_gop=0 / weightp=2 / keyint=240 / keyint_min=121 / scenecut=0 / intra_refresh=0 / rc_lookahead=240 / rc=crf / mbtree=1 / crf=16.0 / qcomp=0.50 / qpmin=6 / qpmax=51 / qpstep=4 / vbv_maxrate=20000 / vbv_bufsize=25000 / crf_max=0.0 / nal_hrd=vbr / filler=0 / ip_ratio=1.40 / aq=1:0.80
    Default                     : Yes
    Forced                      : Yes

    Audio
    ID                          : 2
    Format                      : E-AC-3 JOC
    Format/Info                 : Enhanced AC-3 with Joint Object Coding
    Commercial name             : Dolby Digital Plus with Dolby Atmos
    Codec ID                    : A_EAC3
    Duration                    : 2 h 25 min
    Bit rate mode               : Constant
    Bit rate                    : 768 kb/s
    Channel(s)                  : 6 channels
    Channel layout              : L R C LFE Ls Rs
    Sampling rate               : 48.0 kHz
    Frame rate                  : 31.250 FPS (1536 SPF)
    Compression mode            : Lossy
    Stream size                 : 799 MiB (9%)
    Title                       : Español Latino [CinemaniaHDD]
    Language                    : Spanish
    Service kind                : Complete Main
    Default                     : Yes
    Forced                      : Yes
    Complexity index            : 16
    Number of dynamic objects   : 15
    Bed channel count           : 1 channel
    Bed channel configuration   : LFE

    Text #1
    ID                          : 3
    Format                      : UTF-8
    Codec ID                    : S_TEXT/UTF8
    Codec ID/Info               : UTF-8 Plain Text
    Duration                    : 2 h 22 min
    Bit rate                    : 47 b/s
    Count of elements           : 1668
    Stream size                 : 49.9 KiB (0%)
    Title                       : Español-SRT [CinemaniaHDD]
    Language                    : Spanish
    Default                     : No
    Forced                      : No

    Text #2
    ID                          : 4
    Format                      : UTF-8
    Codec ID                    : S_TEXT/UTF8
    Codec ID/Info               : UTF-8 Plain Text
    Duration                    : 2 h 22 min
    Bit rate                    : 51 b/s
    Count of elements           : 1779
    Stream size                 : 53.6 KiB (0%)
    Title                       : Ingles-SRT [CinemaniaHDD]
    Language                    : English
    Default                     : No
    Forced                      : No

  • Peso: 8.98 GiB

Sinopsis

Descargar La sociedad de la nieve (2023) NF WEB-DL 1080p Latino. El 13 de octubre de 1972, el vuelo 571 de la Fuerza Aérea Uruguaya, fletado para llevar a un equipo de rugby a Chile, se estrella en un glaciar en el corazón de los Andes.

Ficha técnica

Video trailer de la película

Enlaces de descarga

Rip de Bluray

Descargar La sociedad de la nieve (2023) NF WEB-DL 1080p Latino




Aportes de DPeliculasHDmega la pass es:dpeliculashdmega.org Aportes de CinemaniaHD la pass es:cinemaniahdd.com Aportes recientes:cinemaniahdd.net
Guardado en : Drama , Historia , Netflix

Películas relacionadas

descargar La sociedad de la nieve (2023) NF WEB-DL 1080p Latino WEBDL 1080p gratis, La sociedad de la nieve (2023) NF WEB-DL 1080p Latino WEBDL mega 1 link, La sociedad de la nieve (2023) NF WEB-DL 1080p Latino WEBDL pelicula completa, descargar La sociedad de la nieve (2023) NF WEB-DL 1080p Latino WEBDL gratis en mega.

La sociedad de la nieve (2023) NF WEB-DL 1080p Latino pelicula full hd, La sociedad de la nieve (2023) NF WEB-DL 1080p Latino mega latino, La sociedad de la nieve (2023) NF WEB-DL 1080p Latino 4k latino, La sociedad de la nieve (2023) NF WEB-DL 1080p Latino pelicula completa, La sociedad de la nieve (2023) NF WEB-DL 1080p Latino descargar gratis, descargar La sociedad de la nieve (2023) NF WEB-DL 1080p Latino pelicula latino, La sociedad de la nieve (2023) NF WEB-DL 1080p Latino 1 link mega, La sociedad de la nieve (2023) NF WEB-DL 1080p Latino 1 link google drive, La sociedad de la nieve (2023) NF WEB-DL 1080p Latino hd 1080p latino.
Comentarios 0