×

¿Problemas para descargar con Mozilla, EDGE? Deshabilita la opción "Abrir vinculos en una pestaña nueva" tal como lo muestra ésta imagen.

La sirenita (2023) REMUX 1080p Latino

190 vistas

Información de La sirenita (2023) REMUX 1080p Latino

Datos de la película

  • Calidad: Full 1080p
  • Audio: Se especifica abajo de la Sinopsis
  • Subtitulos: Español Latino PGS - Ingles PGS
  • Resolución: 1920x1080p
  • Formato: MKV
  • Codec: H.264
  • Encoder: Melkor
  • Mediainfo: Clic para Mostrar Datos Ver
  • La Sirenita (2023) REMUX 1080p Latino.mkv
    Format                      : Matroska
    Format version              : Version 4
    File size                   : 32.3 GiB
    Duration                    : 2 h 15 min
    Overall bit rate mode       : Variable
    Overall bit rate            : 34.2 Mb/s
    Movie name                  : The Little Mermaid (2023) CinemaniaHDD.Net
    Encoded date                : UTC 2023-09-14 19:57:40
    Writing application         : mkvmerge v56.1.0 ('My Friend') 64-bit
    Writing library             : libebml v1.4.2 + libmatroska v1.6.4
    Attachments                 : CINEMANIAHD.png
    Site                        : CinemaniaHDD.Net
    Uploader                    : Melkor

    Video
    ID                          : 1
    Format                      : AVC
    Format/Info                 : Advanced Video Codec
    Format profile              : High@L4.1
    Format settings             : CABAC / 4 Ref Frames
    Format settings, CABAC      : Yes
    Format settings, Reference  : 4 frames
    Codec ID                    : V_MPEG4/ISO/AVC
    Duration                    : 2 h 15 min
    Bit rate mode               : Variable
    Bit rate                    : 27.9 Mb/s
    Maximum bit rate            : 35.7 Mb/s
    Width                       : 1 920 pixels
    Height                      : 1 080 pixels
    Display aspect ratio        : 16:9
    Frame rate mode             : Constant
    Frame rate                  : 23.976 (24000/1001) FPS
    Color space                 : YUV
    Chroma subsampling          : 4:2:0
    Bit depth                   : 8 bits
    Scan type                   : Progressive
    Bits/(Pixel*Frame)          : 0.561
    Stream size                 : 26.3 GiB (81%)
    Title                       : REMUX HD1080p [CinemaniaHDD]
    Default                     : Yes
    Forced                      : Yes

    Audio #1
    ID                          : 2
    Format                      : AC-3
    Format/Info                 : Audio Coding 3
    Commercial name             : Dolby Digital
    Codec ID                    : A_AC3
    Duration                    : 2 h 15 min
    Bit rate mode               : Constant
    Bit rate                    : 640 kb/s
    Channel(s)                  : 6 channels
    Channel layout              : L R C LFE Ls Rs
    Sampling rate               : 48.0 kHz
    Frame rate                  : 31.250 FPS (1536 SPF)
    Compression mode            : Lossy
    Stream size                 : 619 MiB (2%)
    Title                       : Español Latino AC3 [CinemaniaHDD]
    Language                    : Spanish
    Service kind                : Complete Main
    Default                     : Yes
    Forced                      : Yes

    Audio #2
    ID                          : 3
    Format                      : E-AC-3
    Format/Info                 : Enhanced AC-3
    Commercial name             : Dolby Digital Plus
    Format settings             : Dolby Surround EX
    Codec ID                    : A_EAC3
    Duration                    : 2 h 15 min
    Bit rate mode               : Constant
    Bit rate                    : 640 kb/s
    Channel(s)                  : 8 channels
    Channel layout              : L R C LFE Ls Rs Lb Rb
    Sampling rate               : 48.0 kHz
    Frame rate                  : 31.250 FPS (1536 SPF)
    Compression mode            : Lossy
    Stream size                 : 619 MiB (2%)
    Title                       : Español Latino EAC3 [CinemaniaHDD]
    Language                    : Spanish
    Service kind                : Complete Main
    Default                     : No
    Forced                      : No

    Audio #3
    ID                          : 4
    Format                      : DTS XLL
    Format/Info                 : Digital Theater Systems
    Commercial name             : DTS-HD Master Audio
    Codec ID                    : A_DTS
    Duration                    : 2 h 15 min
    Bit rate mode               : Variable
    Bit rate                    : 5 040 kb/s
    Channel(s)                  : 8 channels
    Channel layout              : C L R LFE Lb Rb Lss Rss
    Sampling rate               : 48.0 kHz
    Frame rate                  : 93.750 FPS (512 SPF)
    Bit depth                   : 24 bits
    Compression mode            : Lossless
    Stream size                 : 4.76 GiB (15%)
    Title                       : Ingles [CinemaniaHDD]
    Language                    : English
    Default                     : No
    Forced                      : No

    Text #1
    ID                          : 5
    Format                      : PGS
    Muxing mode                 : zlib
    Codec ID                    : S_HDMV/PGS
    Codec ID/Info               : Picture based subtitle format used on BDs/HD-DVDs
    Duration                    : 2 h 7 min
    Bit rate                    : 36.4 kb/s
    Count of elements           : 3699
    Stream size                 : 33.2 MiB (0%)
    Title                       : Español-PGS [CinemaniaHDD]
    Language                    : Spanish
    Default                     : No
    Forced                      : No

    Text #2
    ID                          : 6
    Format                      : PGS
    Muxing mode                 : zlib
    Codec ID                    : S_HDMV/PGS
    Codec ID/Info               : Picture based subtitle format used on BDs/HD-DVDs
    Duration                    : 2 h 8 min
    Bit rate                    : 50.2 kb/s
    Count of elements           : 4756
    Stream size                 : 46.0 MiB (0%)
    Title                       : Ingles-PGS [CinemaniaHDD]
    Language                    : English
    Default                     : No
    Forced                      : No

    Text #3
    ID                          : 7
    Format                      : UTF-8
    Codec ID                    : S_TEXT/UTF8
    Codec ID/Info               : UTF-8 Plain Text
    Duration                    : 19 s 436 ms
    Bit rate                    : 44 b/s
    Count of elements           : 4
    Stream size                 : 107 Bytes (0%)
    Title                       : Forzados-SRT [CinemaniaHDD]
    Language                    : Spanish
    Default                     : Yes
    Forced                      : Yes

    Text #4
    ID                          : 8
    Format                      : UTF-8
    Codec ID                    : S_TEXT/UTF8
    Codec ID/Info               : UTF-8 Plain Text
    Duration                    : 2 h 7 min
    Bit rate                    : 55 b/s
    Count of elements           : 1849
    Stream size                 : 51.4 KiB (0%)
    Title                       : Español-SRT [CinemaniaHDD]
    Language                    : Spanish
    Default                     : No
    Forced                      : No

    Menu
    00:00:00.000                : Chapter 01
    00:04:00.615                : Chapter 02
    00:04:00.699                : Chapter 03
    00:07:06.176                : Chapter 04
    00:07:06.259                : Chapter 05
    00:10:54.571                : Chapter 06
    00:10:54.654                : Chapter 07
    00:13:09.455                : Chapter 08
    00:13:09.539                : Chapter 09
    00:16:39.248                : Chapter 10
    00:16:39.332                : Chapter 11
    00:20:54.211                : Chapter 12
    00:20:54.295                : Chapter 13
    00:28:46.016                : Chapter 14
    00:28:46.099                : Chapter 15
    00:32:42.586                : Chapter 16
    00:32:42.669                : Chapter 17
    00:38:15.668                : Chapter 18
    00:38:15.752                : Chapter 19
    00:43:31.192                : Chapter 20
    00:43:31.275                : Chapter 21
    00:49:18.247                : Chapter 22
    00:49:18.330                : Chapter 23
    01:00:24.037                : Chapter 24
    01:00:24.120                : Chapter 25
    01:08:08.084                : Chapter 26
    01:08:08.167                : Chapter 27
    01:17:02.076                : Chapter 28
    01:17:02.159                : Chapter 29
    01:22:43.876                : Chapter 30
    01:22:43.959                : Chapter 31
    01:29:10.262                : Chapter 32
    01:29:10.345                : Chapter 33
    01:31:19.766                : Chapter 34
    01:31:19.849                : Chapter 35
    01:36:08.763                : Chapter 36
    01:36:08.846                : Chapter 37
    01:39:50.401                : Chapter 38
    01:39:50.484                : Chapter 39
    01:42:57.171                : Chapter 40
    01:42:57.254                : Chapter 41
    01:47:04.209                : Chapter 42
    01:47:04.293                : Chapter 43
    01:56:03.498                : Chapter 44
    01:56:03.582                : Chapter 45
    01:59:40.757                : Chapter 46
    01:59:40.840                : Chapter 47
    02:01:03.465                : Chapter 48
    02:01:03.548                : Chapter 49
    02:05:50.334                : Chapter 50
    02:05:50.418                : Chapter 51
    02:15:13.480                : Chapter 52

  • Peso: 32.3 GiB

Sinopsis

Descargar La sirenita (2023) REMUX 1080p Latino. Ariel es una joven y soñadora sirena, hija del Rey Tritón, que está cansada de su vida como princesa bajo el mar. Su mayor deseo es abandonar el fondo marino y tener una vida normal y apacible en la superficie. La bruja Úrsula descubre su anhelo y, por eso, a cambio de su preciosa voz le ofrece un cuerpo totalmente humano. Ariel acepta, movida por su pasión por conocer el mundo terrestre y porque está enamorada de un apuesto príncipe humano. Pero las cosas no serán fáciles para Ariel, ya que la bruja Úrsula esconde oscuras intenciones.

Español Latino AC3 5.1 BD & EAC3 7.1 Web – Ingles DTS-HD 7.1 BD

Ficha técnica

Video trailer de la película

Enlaces de descarga

Rip de Bluray

Descargar La sirenita (2023) REMUX 1080p Latino




Aportes de DPeliculasHDmega la pass es:dpeliculashdmega.org Aportes de CinemaniaHD la pass es:cinemaniahdd.com Aportes recientes:cinemaniahdd.net
Guardado en : Aventura , Familia , Fantasía , Remux , Romance

Películas relacionadas

descargar La sirenita (2023) REMUX 1080p Latino Full 1080p 1080p gratis, La sirenita (2023) REMUX 1080p Latino Full 1080p mega 1 link, La sirenita (2023) REMUX 1080p Latino Full 1080p pelicula completa, descargar La sirenita (2023) REMUX 1080p Latino Full 1080p gratis en mega.

La sirenita (2023) REMUX 1080p Latino pelicula full hd, La sirenita (2023) REMUX 1080p Latino mega latino, La sirenita (2023) REMUX 1080p Latino 4k latino, La sirenita (2023) REMUX 1080p Latino pelicula completa, La sirenita (2023) REMUX 1080p Latino descargar gratis, descargar La sirenita (2023) REMUX 1080p Latino pelicula latino, La sirenita (2023) REMUX 1080p Latino 1 link mega, La sirenita (2023) REMUX 1080p Latino 1 link google drive, La sirenita (2023) REMUX 1080p Latino hd 1080p latino.
Comentarios 0