×

¿Problemas para descargar con Mozilla, EDGE? Deshabilita la opción "Abrir vinculos en una pestaña nueva" tal como lo muestra ésta imagen.

La sirenita (2023) AMZN WEB-DL 1080p Latino

187 vistas

Información de La sirenita (2023) AMZN WEB-DL 1080p Latino

Datos de la película

  • Calidad: WEBDL
  • Audio: Se especifica abajo de la Sinopsis
  • Subtitulos: Español Latino SRT- FORZADOS SRT
  • Resolución: 1920x800p
  • Formato: MKV
  • Codec: H.264
  • Encoder: Melkor
  • Mediainfo: Clic para Mostrar Datos Ver
  • La Sirenita (2023) AMZN WebDL 1080p Latino.mkv
    Format                      : Matroska
    Format version              : Version 4
    File size                   : 9.72 GiB
    Duration                    : 2 h 19 min
    Overall bit rate            : 9 962 kb/s
    Movie name                  : The Little Mermaid (2023) CinemaniaHDD.Net
    Encoded date                : UTC 2023-07-24 16:21:27
    Writing application         : mkvmerge v56.1.0 ('My Friend') 64-bit
    Writing library             : libebml v1.4.2 + libmatroska v1.6.4
    Attachments                 : CINEMANIAHD.png
    Site                        : CinemaniaHDD.Net
    Uploader                    : Melkor

    Video
    ID                          : 1
    Format                      : AVC
    Format/Info                 : Advanced Video Codec
    Format profile              : High@L4
    Format settings             : CABAC / 4 Ref Frames
    Format settings, CABAC      : Yes
    Format settings, Reference  : 4 frames
    Codec ID                    : V_MPEG4/ISO/AVC
    Duration                    : 2 h 19 min
    Bit rate mode               : Constant
    Bit rate                    : 7 978 kb/s
    Nominal bit rate            : 10 000 kb/s
    Width                       : 1 920 pixels
    Height                      : 800 pixels
    Display aspect ratio        : 2.40:1
    Frame rate mode             : Constant
    Frame rate                  : 23.976 (24000/1001) FPS
    Color space                 : YUV
    Chroma subsampling          : 4:2:0
    Bit depth                   : 8 bits
    Scan type                   : Progressive
    Bits/(Pixel*Frame)          : 0.217
    Stream size                 : 7.79 GiB (80%)
    Title                       : Web HD1080p [CinemaniaHDD]
    Language                    : English
    Default                     : Yes
    Forced                      : Yes
    Color range                 : Limited
    Color primaries             : BT.709
    Transfer characteristics    : BT.709
    Matrix coefficients         : BT.709

    Audio #1
    ID                          : 2
    Format                      : AC-3
    Format/Info                 : Audio Coding 3
    Commercial name             : Dolby Digital
    Codec ID                    : A_AC3
    Duration                    : 2 h 15 min
    Bit rate mode               : Constant
    Bit rate                    : 640 kb/s
    Channel(s)                  : 6 channels
    Channel layout              : L R C LFE Ls Rs
    Sampling rate               : 48.0 kHz
    Frame rate                  : 31.250 FPS (1536 SPF)
    Compression mode            : Lossy
    Stream size                 : 619 MiB (6%)
    Title                       : Español Latino AC3 [CinemaniaHDD]
    Language                    : Spanish
    Service kind                : Complete Main
    Default                     : Yes
    Forced                      : Yes

    Audio #2
    ID                          : 3
    Format                      : E-AC-3
    Format/Info                 : Enhanced AC-3
    Commercial name             : Dolby Digital Plus
    Format settings             : Dolby Surround EX
    Codec ID                    : A_EAC3
    Duration                    : 2 h 15 min
    Bit rate mode               : Constant
    Bit rate                    : 640 kb/s
    Channel(s)                  : 8 channels
    Channel layout              : L R C LFE Ls Rs Lb Rb
    Sampling rate               : 48.0 kHz
    Frame rate                  : 31.250 FPS (1536 SPF)
    Compression mode            : Lossy
    Stream size                 : 619 MiB (6%)
    Title                       : Español Latino EAC3 [CinemaniaHDD]
    Language                    : Spanish
    Service kind                : Complete Main
    Default                     : No
    Forced                      : No

    Audio #3
    ID                          : 4
    Format                      : E-AC-3 JOC
    Format/Info                 : Enhanced AC-3 with Joint Object Coding
    Commercial name             : Dolby Digital Plus with Dolby Atmos
    Codec ID                    : A_EAC3
    Duration                    : 2 h 15 min
    Bit rate mode               : Constant
    Bit rate                    : 768 kb/s
    Channel(s)                  : 6 channels
    Channel layout              : L R C LFE Ls Rs
    Sampling rate               : 48.0 kHz
    Frame rate                  : 31.250 FPS (1536 SPF)
    Compression mode            : Lossy
    Stream size                 : 743 MiB (7%)
    Title                       : Ingles [CinemaniaHDD]
    Language                    : English
    Service kind                : Complete Main
    Default                     : No
    Forced                      : No
    Complexity index            : 16
    Number of dynamic objects   : 15
    Bed channel count           : 1 channel
    Bed channel configuration   : LFE

    Text #1
    ID                          : 5
    Format                      : UTF-8
    Codec ID                    : S_TEXT/UTF8
    Codec ID/Info               : UTF-8 Plain Text
    Duration                    : 19 s 436 ms
    Bit rate                    : 44 b/s
    Count of elements           : 4
    Stream size                 : 107 Bytes (0%)
    Title                       : Forzados-SRT [CinemaniaHDD]
    Language                    : Spanish
    Default                     : Yes
    Forced                      : Yes

    Text #2
    ID                          : 6
    Format                      : UTF-8
    Codec ID                    : S_TEXT/UTF8
    Codec ID/Info               : UTF-8 Plain Text
    Duration                    : 2 h 7 min
    Bit rate                    : 55 b/s
    Count of elements           : 1849
    Stream size                 : 51.4 KiB (0%)
    Title                       : Español-SRT [CinemaniaHDD]
    Language                    : Spanish
    Default                     : No
    Forced                      : No

    Text #3
    ID                          : 7
    Format                      : UTF-8
    Codec ID                    : S_TEXT/UTF8
    Codec ID/Info               : UTF-8 Plain Text
    Duration                    : 2 h 6 min
    Bit rate                    : 58 b/s
    Count of elements           : 1984
    Stream size                 : 54.4 KiB (0%)
    Title                       : Ingles-SRT [CinemaniaHDD]
    Language                    : English
    Default                     : No
    Forced                      : No

    Menu
    00:00:00.020                : Chapter 01
    00:04:00.719                : Chapter 02
    00:07:06.279                : Chapter 03
    00:10:54.674                : Chapter 04
    00:13:09.559                : Chapter 05
    00:16:39.352                : Chapter 06
    00:20:54.315                : Chapter 07
    00:28:46.121                : Chapter 08
    00:32:42.691                : Chapter 09
    00:38:15.774                : Chapter 10
    00:43:31.297                : Chapter 11
    00:49:18.353                : Chapter 12
    01:00:24.144                : Chapter 13
    01:08:08.191                : Chapter 14
    01:17:02.183                : Chapter 15
    01:22:43.983                : Chapter 16
    01:29:10.370                : Chapter 17
    01:31:19.874                : Chapter 18
    01:36:08.872                : Chapter 19
    01:39:50.510                : Chapter 20
    01:42:57.280                : Chapter 21
    01:47:04.319                : Chapter 22
    01:56:03.608                : Chapter 23
    01:59:40.867                : Chapter 24
    02:01:03.575                : Chapter 25
    02:05:50.445                : Chapter 26

  • Peso: 9.72 GiB

Sinopsis

Descargar La sirenita (2023) AMZN WEB-DL 1080p Latino. Ariel es una joven y soñadora sirena, hija del Rey Tritón, que está cansada de su vida como princesa bajo el mar. Su mayor deseo es abandonar el fondo marino y tener una vida normal y apacible en la superficie. La bruja Úrsula descubre su anhelo y, por eso, a cambio de su preciosa voz le ofrece un cuerpo totalmente humano. Ariel acepta, movida por su pasión por conocer el mundo terrestre y porque está enamorada de un apuesto príncipe humano. Pero las cosas no serán fáciles para Ariel, ya que la bruja Úrsula esconde oscuras intenciones.

Español Latino EAC3 7.1 & AC3 5.1 – Ingles EAC3 JOC 5.1

Ficha técnica

Video trailer de la película

Enlaces de descarga

Rip de Bluray

Descargar La sirenita (2023) AMZN WEB-DL 1080p Latino




Aportes de DPeliculasHDmega la pass es:dpeliculashdmega.org Aportes de CinemaniaHD la pass es:cinemaniahdd.com Aportes recientes:cinemaniahdd.net
Guardado en : Aventura , Familia , Fantasía , Romance

Películas relacionadas

descargar La sirenita (2023) AMZN WEB-DL 1080p Latino WEBDL 1080p gratis, La sirenita (2023) AMZN WEB-DL 1080p Latino WEBDL mega 1 link, La sirenita (2023) AMZN WEB-DL 1080p Latino WEBDL pelicula completa, descargar La sirenita (2023) AMZN WEB-DL 1080p Latino WEBDL gratis en mega.

La sirenita (2023) AMZN WEB-DL 1080p Latino pelicula full hd, La sirenita (2023) AMZN WEB-DL 1080p Latino mega latino, La sirenita (2023) AMZN WEB-DL 1080p Latino 4k latino, La sirenita (2023) AMZN WEB-DL 1080p Latino pelicula completa, La sirenita (2023) AMZN WEB-DL 1080p Latino descargar gratis, descargar La sirenita (2023) AMZN WEB-DL 1080p Latino pelicula latino, La sirenita (2023) AMZN WEB-DL 1080p Latino 1 link mega, La sirenita (2023) AMZN WEB-DL 1080p Latino 1 link google drive, La sirenita (2023) AMZN WEB-DL 1080p Latino hd 1080p latino.
Comentarios 0