×

¿Problemas para descargar con Mozilla, EDGE? Deshabilita la opción "Abrir vinculos en una pestaña nueva" tal como lo muestra ésta imagen.

La sirenita (1989) REMUX 1080p Latino – CMHDD

335 vistas

Información de La sirenita (1989) REMUX 1080p Latino – CMHDD

Datos de la película

  • Calidad: Full 1080p
  • Audio: Español Latino AC3 5.1 BLURAY - Ingles DTS-HD Master 7.1 BLURAY
  • Subtitulos: Español Latino SRT- FORZADOS SRT
  • Resolución: 1920x1080p
  • Formato: MKV
  • Codec: H.264
  • Encoder: Dracarys
  • Mediainfo: Clic para Mostrar Datos Ver
  • Format                      : Matroska
    Format version              : Version 4
    File size                   : 19.5 GiB
    Duration                    : 1 h 22 min
    Overall bit rate mode       : Variable
    Overall bit rate            : 33.8 Mb/s
    Movie name                  : La sirenita (1989) REMUX 1080p Latino - CMHDD
    Encoded date                : UTC 2020-08-10 00:41:31
    Writing application         : mkvmerge v46.0.0 ('No Deeper Escape') 64-bit
    Writing library             : libebml v1.3.10 + libmatroska v1.5.2

    Video
    ID                          : 1
    Format                      : AVC
    Format/Info                 : Advanced Video Codec
    Format profile              : High@L4.1
    Format settings             : CABAC / 4 Ref Frames
    Format settings, CABAC      : Yes
    Format settings, Reference  : 4 frames
    Format settings, GOP        : M=1, N=12
    Codec ID                    : V_MPEG4/ISO/AVC
    Duration                    : 1 h 22 min
    Bit rate mode               : Variable
    Bit rate                    : 27.4 Mb/s
    Maximum bit rate            : 30.5 Mb/s
    Width                       : 1 920 pixels
    Height                      : 1 080 pixels
    Display aspect ratio        : 16:9
    Frame rate mode             : Constant
    Frame rate                  : 23.976 (24000/1001) FPS
    Color space                 : YUV
    Chroma subsampling          : 4:2:0
    Bit depth                   : 8 bits
    Scan type                   : Progressive
    Bits/(Pixel*Frame)          : 0.551
    Stream size                 : 15.9 GiB (81%)
    Default                     : Yes
    Forced                      : No

    Audio #1
    ID                          : 2
    Format                      : AC-3
    Format/Info                 : Audio Coding 3
    Commercial name             : Dolby Digital
    Codec ID                    : A_AC3
    Duration                    : 1 h 22 min
    Bit rate mode               : Constant
    Bit rate                    : 640 kb/s
    Channel(s)                  : 6 channels
    Channel layout              : L R C LFE Ls Rs
    Sampling rate               : 48.0 kHz
    Frame rate                  : 31.250 FPS (1536 SPF)
    Compression mode            : Lossy
    Stream size                 : 379 MiB (2%)
    Language                    : Spanish
    Service kind                : Complete Main
    Default                     : Yes
    Forced                      : No

    Audio #2
    ID                          : 3
    Format                      : DTS XLL
    Format/Info                 : Digital Theater Systems
    Commercial name             : DTS-HD Master Audio
    Codec ID                    : A_DTS
    Duration                    : 1 h 22 min
    Bit rate mode               : Variable
    Bit rate                    : 5 728 kb/s
    Channel(s)                  : 8 channels
    Channel layout              : C L R LFE Lb Rb Lss Rss
    Sampling rate               : 48.0 kHz
    Frame rate                  : 93.750 FPS (512 SPF)
    Bit depth                   : 24 bits
    Compression mode            : Lossless
    Stream size                 : 3.31 GiB (17%)
    Language                    : English
    Default                     : No
    Forced                      : No

    Text #1
    ID                          : 4
    Format                      : PGS
    Muxing mode                 : zlib
    Codec ID                    : S_HDMV/PGS
    Codec ID/Info               : Picture based subtitle format used on BDs/HD-DVDs
    Duration                    : 1 h 16 min
    Bit rate                    : 29.7 kb/s
    Count of elements           : 1808
    Stream size                 : 16.3 MiB (0%)
    Language                    : Spanish
    Default                     : No
    Forced                      : No

    Text #2
    ID                          : 5
    Format                      : PGS
    Muxing mode                 : zlib
    Codec ID                    : S_HDMV/PGS
    Codec ID/Info               : Picture based subtitle format used on BDs/HD-DVDs
    Duration                    : 21 min 46 s
    Bit rate                    : 105 b/s
    Count of elements           : 4
    Stream size                 : 16.8 KiB (0%)
    Language                    : Spanish
    Default                     : No
    Forced                      : No

    Text #3
    ID                          : 6
    Format                      : UTF-8
    Codec ID                    : S_TEXT/UTF8
    Codec ID/Info               : UTF-8 Plain Text
    Duration                    : 1 h 16 min
    Bit rate                    : 50 b/s
    Count of elements           : 904
    Stream size                 : 28.2 KiB (0%)
    Language                    : Spanish
    Default                     : No
    Forced                      : No

    Text #4
    ID                          : 7
    Format                      : UTF-8
    Codec ID                    : S_TEXT/UTF8
    Codec ID/Info               : UTF-8 Plain Text
    Duration                    : 21 min 46 s
    Bit rate                    : 0 b/s
    Count of elements           : 2
    Stream size                 : 19.0 Bytes (0%)
    Title                       : Forzados
    Language                    : Spanish
    Default                     : Yes
    Forced                      : No
     

  • Peso: 19.5 GiB

Sinopsis

Ariel es una sirena adolescente, hija de Tritón, el rey del mar. Desobedeciendo a su padre, Ariel va al mundo de la superficie y se enamora del príncipe Eric. En la esperanza de encontrar a su amado, la sirenita cae inocentemente bajo los encantos de Ursula, la bruja del mar, que se transforma en un ser humano. Pero la bruja tiene planes terribles para Ariel y su padre. La Sirenita es el primero de una serie de éxitos que ascendió de nuevo a los estudios Disney a lo más alto del mundo de la animación. Oscar a la mejor canción y mejor banda sonora.

Ficha técnica

Video trailer de la película

Enlaces de descarga

Rip de Bluray

Descargar La sirenita (1989) REMUX 1080p Latino – CMHDD




Aportes de DPeliculasHDmega la pass es:dpeliculashdmega.org Aportes de CinemaniaHD la pass es:cinemaniahdd.com
Guardado en : Animación , Familia , Fantasía

Películas relacionadas

descargar La sirenita (1989) REMUX 1080p Latino – CMHDD Full 1080p 1080p gratis, La sirenita (1989) REMUX 1080p Latino – CMHDD Full 1080p mega 1 link, La sirenita (1989) REMUX 1080p Latino – CMHDD Full 1080p pelicula completa, descargar La sirenita (1989) REMUX 1080p Latino – CMHDD Full 1080p gratis en mega.

La sirenita (1989) REMUX 1080p Latino – CMHDD pelicula full hd, La sirenita (1989) REMUX 1080p Latino – CMHDD mega latino, La sirenita (1989) REMUX 1080p Latino – CMHDD 4k latino, La sirenita (1989) REMUX 1080p Latino – CMHDD pelicula completa, La sirenita (1989) REMUX 1080p Latino – CMHDD descargar gratis, descargar La sirenita (1989) REMUX 1080p Latino – CMHDD pelicula latino, La sirenita (1989) REMUX 1080p Latino – CMHDD 1 link mega, La sirenita (1989) REMUX 1080p Latino – CMHDD 1 link google drive, La sirenita (1989) REMUX 1080p Latino – CMHDD hd 1080p latino.
Comentarios 0