×

¿Problemas para descargar con Mozilla, EDGE? Deshabilita la opción "Abrir vinculos en una pestaña nueva" tal como lo muestra ésta imagen.

La sirenita (1989) HD 1080p Latino – CMHDD

500 vistas

Información de La sirenita (1989) HD 1080p Latino – CMHDD

Datos de la película

  • Calidad: 1080p
  • Audio: Español Latino AC3 5.1 BLURAY - Ingles AC3 5.1 BLURAY
  • Subtitulos: Español Latino SRT- FORZADOS SRT
  • Resolución: 1920x1080p
  • Formato: MKV
  • Codec: H.264
  • Encoder: Dracarys
  • Mediainfo: Clic para Mostrar Datos Ver
  • Format                      : Matroska
    Format version              : Version 4
    File size                   : 2.73 GiB
    Duration                    : 1 h 22 min
    Overall bit rate            : 4 722 kb/s
    Movie name                  : La sirenita (1989) HD 1080p Latino - CMHDD
    Encoded date                : UTC 2020-08-10 01:10:11
    Writing application         : mkvmerge v46.0.0 ('No Deeper Escape') 64-bit
    Writing library             : libebml v1.3.10 + libmatroska v1.5.2

    Video
    ID                          : 1
    Format                      : AVC
    Format/Info                 : Advanced Video Codec
    Format profile              : High@L4.1
    Format settings             : CABAC / 4 Ref Frames
    Format settings, CABAC      : Yes
    Format settings, Reference  : 4 frames
    Codec ID                    : V_MPEG4/ISO/AVC
    Duration                    : 1 h 22 min
    Bit rate                    : 3 500 kb/s
    Width                       : 1 920 pixels
    Height                      : 1 080 pixels
    Display aspect ratio        : 16:9
    Frame rate mode             : Constant
    Frame rate                  : 23.976 (24000/1001) FPS
    Color space                 : YUV
    Chroma subsampling          : 4:2:0
    Bit depth                   : 8 bits
    Scan type                   : Progressive
    Bits/(Pixel*Frame)          : 0.070
    Stream size                 : 1.99 GiB (73%)
    Writing library             : x264 core 157 r2935 545de2f
    Encoding settings           : cabac=1 / ref=4 / deblock=1:0:0 / analyse=0x3:0x113 / me=hex / subme=8 / psy=1 / psy_rd=1.00:0.00 / mixed_ref=1 / me_range=16 / chroma_me=1 / trellis=2 / 8x8dct=1 / cqm=0 / deadzone=21,11 / fast_pskip=1 / chroma_qp_offset=-2 / threads=24 / lookahead_threads=4 / sliced_threads=0 / nr=0 / decimate=1 / interlaced=0 / bluray_compat=0 / constrained_intra=0 / bframes=3 / b_pyramid=2 / b_adapt=1 / b_bias=0 / direct=3 / weightb=1 / open_gop=0 / weightp=2 / keyint=240 / keyint_min=24 / scenecut=40 / intra_refresh=0 / rc_lookahead=50 / rc=abr / mbtree=1 / bitrate=3500 / ratetol=1.0 / qcomp=0.60 / qpmin=0 / qpmax=69 / qpstep=4 / vbv_maxrate=62500 / vbv_bufsize=78125 / nal_hrd=none / filler=0 / ip_ratio=1.40 / aq=1:1.00
    Default                     : Yes
    Forced                      : No
    Color range                 : Limited
    Color primaries             : BT.709
    Transfer characteristics    : BT.709
    Matrix coefficients         : BT.709

    Audio #1
    ID                          : 2
    Format                      : AC-3
    Format/Info                 : Audio Coding 3
    Commercial name             : Dolby Digital
    Codec ID                    : A_AC3
    Duration                    : 1 h 22 min
    Bit rate mode               : Constant
    Bit rate                    : 640 kb/s
    Channel(s)                  : 6 channels
    Channel layout              : L R C LFE Ls Rs
    Sampling rate               : 48.0 kHz
    Frame rate                  : 31.250 FPS (1536 SPF)
    Compression mode            : Lossy
    Delay relative to video     : -5 ms
    Stream size                 : 379 MiB (14%)
    Language                    : Spanish
    Service kind                : Complete Main
    Default                     : Yes
    Forced                      : No

    Audio #2
    ID                          : 3
    Format                      : AC-3
    Format/Info                 : Audio Coding 3
    Commercial name             : Dolby Digital
    Codec ID                    : A_AC3
    Duration                    : 1 h 22 min
    Bit rate mode               : Constant
    Bit rate                    : 640 kb/s
    Channel(s)                  : 6 channels
    Channel layout              : L R C LFE Ls Rs
    Sampling rate               : 48.0 kHz
    Frame rate                  : 31.250 FPS (1536 SPF)
    Compression mode            : Lossy
    Delay relative to video     : -5 ms
    Stream size                 : 379 MiB (14%)
    Language                    : English
    Service kind                : Complete Main
    Default                     : No
    Forced                      : No

    Text #1
    ID                          : 4
    Format                      : UTF-8
    Codec ID                    : S_TEXT/UTF8
    Codec ID/Info               : UTF-8 Plain Text
    Duration                    : 1 h 16 min
    Bit rate                    : 50 b/s
    Count of elements           : 904
    Stream size                 : 28.2 KiB (0%)
    Language                    : Spanish
    Default                     : No
    Forced                      : No

    Text #2
    ID                          : 5
    Format                      : UTF-8
    Codec ID                    : S_TEXT/UTF8
    Codec ID/Info               : UTF-8 Plain Text
    Duration                    : 21 min 46 s
    Bit rate                    : 0 b/s
    Count of elements           : 2
    Stream size                 : 19.0 Bytes (0%)
    Title                       : Forzados
    Language                    : Spanish
    Default                     : Yes
    Forced                      : No

    Menu
    00:00:00.000                : :Chapter 1
    00:02:17.846                : :Chapter 2
    00:03:47.185                : :Chapter 3
    00:05:51.643                : :Chapter 4
    00:08:56.036                : :Chapter 5
    00:10:48.982                : :Chapter 6
    00:15:01.359                : :Chapter 7
    00:19:04.685                : :Chapter 8
    00:22:18.462                : :Chapter 9
    00:25:15.723                : :Chapter 10
    00:29:06.245                : :Chapter 11
    00:32:56.057                : :Chapter 12
    00:34:21.476                : :Chapter 13
    00:38:49.160                : :Chapter 14
    00:40:00.690                : :Chapter 15
    00:41:38.413                : :Chapter 16
    00:45:42.615                : :Chapter 17
    00:50:57.054                : :Chapter 18
    00:52:22.556                : :Chapter 19
    00:57:21.772                : :Chapter 20
    00:59:35.947                : :Chapter 21
    01:02:29.204                : :Chapter 22
    01:05:45.650                : :Chapter 23
    01:10:04.742                : :Chapter 24
    01:12:48.739                : :Chapter 25
    01:15:33.154                : :Chapter 26
    01:18:19.403                : :Chapter 27

  • Peso: 2.73 GiB

Sinopsis

Ariel es una sirena adolescente, hija de Tritón, el rey del mar. Desobedeciendo a su padre, Ariel va al mundo de la superficie y se enamora del príncipe Eric. En la esperanza de encontrar a su amado, la sirenita cae inocentemente bajo los encantos de Ursula, la bruja del mar, que se transforma en un ser humano. Pero la bruja tiene planes terribles para Ariel y su padre. La Sirenita es el primero de una serie de éxitos que ascendió de nuevo a los estudios Disney a lo más alto del mundo de la animación. Oscar a la mejor canción y mejor banda sonora.

Ficha técnica

Video trailer de la película

Enlaces de descarga

Rip de Bluray

Descargar La sirenita (1989) HD 1080p Latino – CMHDD




Aportes de DPeliculasHDmega la pass es:dpeliculashdmega.org Aportes de CinemaniaHD la pass es:cinemaniahdd.com
Guardado en : Animación , Familia , Fantasía , HD 1080p

Películas relacionadas

  • Corazón de tinta (2008) Full HD 1080p Latino

    Corazón de tinta (2008) Full HD 1080p Latino

    2008
    Corazón de tinta (2008) Full HD 1080p Latino

    1h 46m 2008

    Descargar Corazón de tinta (2008) Full HD 1080p Latino. Mortimer “Mo” Folchart y su hija de 12 años,...

    Director: Sharon Mansfield

    Género: Aventura

    Actores: Terry Cavanagh

  • Corazón de tinta (2008) REMUX 1080p Latino

    Corazón de tinta (2008) REMUX 1080p Latino

    2008
    Corazón de tinta (2008) REMUX 1080p Latino

    1h 46m 2008

    Descargar Corazón de tinta (2008) REMUX 1080p Latino. Mortimer “Mo” Folchart y su hija de 12 años,...

    Director: Sharon Mansfield

    Género: Aventura

    Actores: Tereza Srbová

  • Juego de espías (2001) 1080p Latino

    Juego de espías (2001) 1080p Latino

    2001
    Juego de espías (2001) 1080p Latino

    2h 6m 2001

    Descargar Juego de espías (2001) 1080p Latino. Corre el año 1991, y al veterano agente de la CIA Nathan...

    Director: Tony Scott

    Género: Acción

    Actores: Zsolt Zágoni

  • Hombre de familia (2000) REMUX 1080p Latino

    Hombre de familia (2000) REMUX 1080p Latino

    2000
    Hombre de familia (2000) REMUX 1080p Latino

    2h 1m 2000

    Descargar Hombre de familia (2000) REMUX 1080p Latino. Jack Campbell es un egocéntrico broker de Wall...

    Director: Robert Schroer

    Género: Comedia

    Actores: Wass Stevens

descargar La sirenita (1989) HD 1080p Latino – CMHDD 1080p 1080p gratis, La sirenita (1989) HD 1080p Latino – CMHDD 1080p mega 1 link, La sirenita (1989) HD 1080p Latino – CMHDD 1080p pelicula completa, descargar La sirenita (1989) HD 1080p Latino – CMHDD 1080p gratis en mega.

La sirenita (1989) HD 1080p Latino – CMHDD pelicula full hd, La sirenita (1989) HD 1080p Latino – CMHDD mega latino, La sirenita (1989) HD 1080p Latino – CMHDD 4k latino, La sirenita (1989) HD 1080p Latino – CMHDD pelicula completa, La sirenita (1989) HD 1080p Latino – CMHDD descargar gratis, descargar La sirenita (1989) HD 1080p Latino – CMHDD pelicula latino, La sirenita (1989) HD 1080p Latino – CMHDD 1 link mega, La sirenita (1989) HD 1080p Latino – CMHDD 1 link google drive, La sirenita (1989) HD 1080p Latino – CMHDD hd 1080p latino.
Comentarios 0