×

¿Problemas para descargar con Mozilla, EDGE? Deshabilita la opción "Abrir vinculos en una pestaña nueva" tal como lo muestra ésta imagen.

La semana que viene a la misma hora (2017) WEB-DL 1080p Latino

259 vistas

Información de La semana que viene a la misma hora (2017) WEB-DL 1080p Latino

Datos de la película

  • Calidad: WEBDL
  • Audio: Español Latino AC3 2.0 iTunes
  • Subtitulos: No
  • Resolución: 1920x1080
  • Formato: MKV
  • Codec: H.264
  • Encoder: CinemaniaHD
  • Mediainfo: Clic para Mostrar Datos Ver
  • Same Time Next Week (2017) WEB-DL 1080p LatinoFIX.mkv
    Format                      : Matroska
    Format version              : Version 4
    File size                   : 2.68 GiB
    Duration                    : 1 h 26 min
    Overall bit rate            : 4 409 kb/s
    Encoded date                : UTC 2020-06-02 14:37:34
    Writing application         : mkvmerge v46.0.0 ('No Deeper Escape') 64-bit
    Writing library             : libebml v1.3.10 + libmatroska v1.5.2

    Video
    ID                          : 1
    Format                      : AVC
    Format/Info                 : Advanced Video Codec
    Format profile              : High@L4
    Format settings             : CABAC / 3 Ref Frames
    Format settings, CABAC      : Yes
    Format settings, Reference  : 3 frames
    Codec ID                    : V_MPEG4/ISO/AVC
    Duration                    : 1 h 26 min
    Bit rate                    : 4 024 kb/s
    Width                       : 1 920 pixels
    Height                      : 1 080 pixels
    Display aspect ratio        : 16:9
    Frame rate mode             : Constant
    Frame rate                  : 23.976 (24000/1001) FPS
    Color space                 : YUV
    Chroma subsampling          : 4:2:0
    Bit depth                   : 8 bits
    Scan type                   : Progressive
    Bits/(Pixel*Frame)          : 0.081
    Stream size                 : 2.45 GiB (91%)
    Default                     : Yes
    Forced                      : No

    Audio
    ID                          : 2
    Format                      : AC-3
    Format/Info                 : Audio Coding 3
    Commercial name             : Dolby Digital
    Codec ID                    : A_AC3
    Duration                    : 1 h 26 min
    Bit rate mode               : Constant
    Bit rate                    : 384 kb/s
    Channel(s)                  : 6 channels
    Channel layout              : L R C LFE Ls Rs
    Sampling rate               : 48.0 kHz
    Frame rate                  : 31.250 FPS (1536 SPF)
    Compression mode            : Lossy
    Delay relative to video     : 24 ms
    Stream size                 : 238 MiB (9%)
    Language                    : Spanish
    Service kind                : Complete Main
    Default                     : No
    Forced                      : No

  • Peso: 2.68 GiB

Sinopsis

Sara lidia con su dolor tratando de completar la lista de deseos de su difunto esposo. Herirse en una de las tareas, la lleva a encontrarse con el Dr. Ryan. Ryan, quien también es viudo, comienza a ayudar a Sara a completar la lista de deseos. Los dos se acercan y Sara no quiere traicionar la memoria de su esposo, así que deja de ver a Ryan. Sin embargo, Ryan no se da por vencido y ayuda a Sara a darse cuenta de que todos merecen una segunda oportunidad de amor…

Ficha técnica

Video trailer de la película

Enlaces de descarga

Rip de Bluray

Descargar La semana que viene a la misma hora (2017) WEB-DL 1080p Latino




Aportes de DPeliculasHDmega la pass es:dpeliculashdmega.org Aportes de CinemaniaHD la pass es:cinemaniahdd.com
Guardado en : Película de TV , Romance

Películas relacionadas

  • After: Amor infinito (2022) AMZN WEB-DL 1080p Latino

    After: Amor infinito (2022) AMZN WEB-DL 1080p Latino

    2022
    After: Amor infinito (2022) AMZN WEB-DL 1080p Latino

    1h 35m 2022

    Descargar After: Amor infinito (2022) AMZN WEB-DL 1080p Latino. El amor de Tessa y Hardin nunca ha sido...

    Director: Castille Landon

    Género: Drama

    Actores: Velizar Nikolaev Biney

  • First Love (2022) AMZN WEB-DL 1080p Latino

    First Love (2022) AMZN WEB-DL 1080p Latino

    2022
    First Love (2022) AMZN WEB-DL 1080p Latino

    1h 35m 2022

    Descargar First Love (2022) AMZN WEB-DL 1080p Latino. Una tierna mirada sobre la entrada en la edad adulta....

    Director: Joshua Glassman

    Género: Drama

    Actores: Vincent Ventresca

  • Romance en Verona (2022) NF WEB-DL 1080p Latino

    Romance en Verona (2022) NF WEB-DL 1080p Latino

    2022
    Romance en Verona (2022) NF WEB-DL 1080p Latino

    1h 55m 2022

    Descargar Romance en Verona (2022) NF WEB-DL 1080p Latino. Una joven hace un viaje a la romántica Verona,...

    Director: Mark Steven Johnson

    Género: Comedia

    Actores: Tom Hopper

descargar La semana que viene a la misma hora (2017) WEB-DL 1080p Latino WEBDL 1080p gratis, La semana que viene a la misma hora (2017) WEB-DL 1080p Latino WEBDL mega 1 link, La semana que viene a la misma hora (2017) WEB-DL 1080p Latino WEBDL pelicula completa, descargar La semana que viene a la misma hora (2017) WEB-DL 1080p Latino WEBDL gratis en mega.

La semana que viene a la misma hora (2017) WEB-DL 1080p Latino pelicula full hd, La semana que viene a la misma hora (2017) WEB-DL 1080p Latino mega latino, La semana que viene a la misma hora (2017) WEB-DL 1080p Latino 4k latino, La semana que viene a la misma hora (2017) WEB-DL 1080p Latino pelicula completa, La semana que viene a la misma hora (2017) WEB-DL 1080p Latino descargar gratis, descargar La semana que viene a la misma hora (2017) WEB-DL 1080p Latino pelicula latino, La semana que viene a la misma hora (2017) WEB-DL 1080p Latino 1 link mega, La semana que viene a la misma hora (2017) WEB-DL 1080p Latino 1 link google drive, La semana que viene a la misma hora (2017) WEB-DL 1080p Latino hd 1080p latino.
Comentarios 0