×

¿Problemas para descargar con Mozilla, EDGE? Deshabilita la opción "Abrir vinculos en una pestaña nueva" tal como lo muestra ésta imagen.

La Segunda (2020) REMUX 1080p Latino

123 vistas

Información de La Segunda (2020) REMUX 1080p Latino

Datos de la película

  • Calidad: Full 1080p
  • Audio: Se especifica abajo de la Sinopsis
  • Subtitulos: Español Latino SRT- FORZADOS SRT
  • Resolución: 1920x1080p
  • Formato: MKV
  • Codec: H.264
  • Encoder: Melkor
  • Mediainfo: Clic para Mostrar Datos Ver
  • La Segunda (2020) REMUX 1080p Latino.mkv
    Format                      : Matroska
    Format version              : Version 4
    File size                   : 23.8 GiB
    Duration                    : 1 h 33 min
    Overall bit rate mode       : Variable
    Overall bit rate            : 36.4 Mb/s
    Movie name                  : The 2nd (2020) CinemaniaHDD.Net
    Encoded date                : UTC 2021-07-13 21:16:54
    Writing application         : mkvmerge v56.1.0 ('My Friend') 64-bit
    Writing library             : libebml v1.4.2 + libmatroska v1.6.4
    Attachments                 : CINEMANIAHD.png

    Video
    ID                          : 1
    Format                      : AVC
    Format/Info                 : Advanced Video Codec
    Format profile              : High@L4.1
    Format settings             : CABAC / 4 Ref Frames
    Format settings, CABAC      : Yes
    Format settings, Reference  : 4 frames
    Codec ID                    : V_MPEG4/ISO/AVC
    Duration                    : 1 h 33 min
    Bit rate mode               : Variable
    Bit rate                    : 32.6 Mb/s
    Maximum bit rate            : 36.0 Mb/s
    Width                       : 1 920 pixels
    Height                      : 1 080 pixels
    Display aspect ratio        : 16:9
    Frame rate mode             : Constant
    Frame rate                  : 23.976 (24000/1001) FPS
    Color space                 : YUV
    Chroma subsampling          : 4:2:0
    Bit depth                   : 8 bits
    Scan type                   : Progressive
    Bits/(Pixel*Frame)          : 0.656
    Stream size                 : 21.3 GiB (89%)
    Title                       : REMUX HD1080p [CinemaniaHDD]
    Language                    : English
    Default                     : Yes
    Forced                      : Yes

    Audio #1
    ID                          : 2
    Format                      : AC-3
    Format/Info                 : Audio Coding 3
    Commercial name             : Dolby Digital
    Codec ID                    : A_AC3
    Duration                    : 1 h 33 min
    Bit rate mode               : Constant
    Bit rate                    : 640 kb/s
    Channel(s)                  : 6 channels
    Channel layout              : L R C LFE Ls Rs
    Sampling rate               : 48.0 kHz
    Frame rate                  : 31.250 FPS (1536 SPF)
    Compression mode            : Lossy
    Stream size                 : 428 MiB (2%)
    Title                       : Español Latino AC3 [CinemaniaHDD]
    Language                    : Spanish
    Service kind                : Complete Main
    Default                     : Yes
    Forced                      : No

    Audio #2
    ID                          : 3
    Format                      : DTS XLL
    Format/Info                 : Digital Theater Systems
    Commercial name             : DTS-HD Master Audio
    Codec ID                    : A_DTS
    Duration                    : 1 h 33 min
    Bit rate mode               : Variable
    Bit rate                    : 2 569 kb/s
    Channel(s)                  : 6 channels
    Channel layout              : C L R Ls Rs LFE
    Sampling rate               : 48.0 kHz
    Frame rate                  : 93.750 FPS (512 SPF)
    Bit depth                   : 24 bits
    Compression mode            : Lossless
    Stream size                 : 1.68 GiB (7%)
    Title                       : Ingles [CinemaniaHDD]
    Language                    : English
    Default                     : No
    Forced                      : No

    Audio #3
    ID                          : 4
    Format                      : E-AC-3
    Format/Info                 : Enhanced AC-3
    Commercial name             : Dolby Digital Plus
    Codec ID                    : A_EAC3
    Duration                    : 1 h 33 min
    Bit rate mode               : Constant
    Bit rate                    : 640 kb/s
    Channel(s)                  : 6 channels
    Channel layout              : L R C LFE Ls Rs
    Sampling rate               : 48.0 kHz
    Frame rate                  : 31.250 FPS (1536 SPF)
    Compression mode            : Lossy
    Delay relative to video     : 4 s 542 ms
    Stream size                 : 428 MiB (2%)
    Title                       : Español Latino EAC3 [CinemaniaHDD]
    Language                    : Spanish
    Service kind                : Complete Main
    Default                     : No
    Forced                      : No

    Text #1
    ID                          : 5
    Format                      : UTF-8
    Codec ID                    : S_TEXT/UTF8
    Codec ID/Info               : UTF-8 Plain Text
    Duration                    : 1 h 31 min
    Bit rate                    : 1 b/s
    Count of elements           : 26
    Stream size                 : 840 Bytes (0%)
    Title                       : Forzados-SRT [CinemaniaHDD]
    Language                    : Spanish
    Default                     : Yes
    Forced                      : No

    Text #2
    ID                          : 6
    Format                      : UTF-8
    Codec ID                    : S_TEXT/UTF8
    Codec ID/Info               : UTF-8 Plain Text
    Duration                    : 1 h 31 min
    Bit rate                    : 38 b/s
    Count of elements           : 1050
    Stream size                 : 26.2 KiB (0%)
    Title                       : Español-SRT [CinemaniaHDD]
    Language                    : Spanish
    Default                     : No
    Forced                      : No

    Text #3
    ID                          : 7
    Format                      : UTF-8
    Codec ID                    : S_TEXT/UTF8
    Codec ID/Info               : UTF-8 Plain Text
    Duration                    : 1 h 32 min
    Bit rate                    : 48 b/s
    Count of elements           : 1193
    Stream size                 : 33.0 KiB (0%)
    Title                       : Ingles-SRT [CinemaniaHDD]
    Language                    : English
    Default                     : No
    Forced                      : No

    Menu
    00:00:00.000                : Chapter 01
    00:10:46.270                : Chapter 02
    00:20:45.202                : Chapter 03
    00:29:58.838                : Chapter 04
    00:39:53.891                : Chapter 05
    00:51:06.480                : Chapter 06
    01:00:06.060                : Chapter 07
    01:10:30.309                : Chapter 08
    01:21:23.295                : Chapter 09

  • Peso: 23.8 GiB

Sinopsis

Descargar La Segunda (2020) REMUX 1080p Latino. El agente del servicio secreto Vic Davis está en camino a recoger a su hijo separado, Sean, de su campus universitario cuando se encuentra en medio de una operación terrorista de alto riesgo. La amiga de su hijo, Erin Walton, la hija del juez de la Corte Suprema Walton es el objetivo, y esta facción armada no se detendrá ante nada para secuestrarla y usarla como palanca para un caso legal histórico pendiente.

Español Latino EAC3 & AC3 5.1 – Ingles DTS-HD 5.1

Ficha técnica

  • Titulo original: The 2nd
  • Fecha de lanzamiento: 14-12-2020 (United States of America)
  • Director: Brian Skiba
  • Género: Acción, Remux

Video trailer de la película

Enlaces de descarga

Rip de Bluray

Descargar La Segunda (2020) REMUX 1080p Latino




Aportes de DPeliculasHDmega la pass es:dpeliculashdmega.org Aportes de CinemaniaHD la pass es:cinemaniahdd.com
Guardado en : Acción , Remux

Películas relacionadas

descargar La Segunda (2020) REMUX 1080p Latino Full 1080p 1080p gratis, La Segunda (2020) REMUX 1080p Latino Full 1080p mega 1 link, La Segunda (2020) REMUX 1080p Latino Full 1080p pelicula completa, descargar La Segunda (2020) REMUX 1080p Latino Full 1080p gratis en mega.

La Segunda (2020) REMUX 1080p Latino pelicula full hd, La Segunda (2020) REMUX 1080p Latino mega latino, La Segunda (2020) REMUX 1080p Latino 4k latino, La Segunda (2020) REMUX 1080p Latino pelicula completa, La Segunda (2020) REMUX 1080p Latino descargar gratis, descargar La Segunda (2020) REMUX 1080p Latino pelicula latino, La Segunda (2020) REMUX 1080p Latino 1 link mega, La Segunda (2020) REMUX 1080p Latino 1 link google drive, La Segunda (2020) REMUX 1080p Latino hd 1080p latino.
Comentarios 0