×

¿Problemas para descargar con Mozilla, EDGE? Deshabilita la opción "Abrir vinculos en una pestaña nueva" tal como lo muestra ésta imagen.

La Rosa Venenosa (2019) REMUX 1080p Latino

181 vistas

Información de La Rosa Venenosa (2019) REMUX 1080p Latino

Datos de la película

  • Calidad: Full 1080p
  • Audio: Se especifica abajo de la Sinopsis
  • Subtitulos: Español Latino SRT- FORZADOS SRT
  • Resolución: 1920x1080p
  • Formato: MKV
  • Codec: H.264
  • Encoder: Melkor
  • Mediainfo: Clic para Mostrar Datos Ver
  • La Rosa Venenosa (2019) REMUX 1080p Latino.mkv
    Format                      : Matroska
    Format version              : Version 4
    File size                   : 23.5 GiB
    Duration                    : 1 h 37 min
    Overall bit rate mode       : Variable
    Overall bit rate            : 34.4 Mb/s
    Movie name                  : The Poison Rose (2019) CinemaniaHDD.Net
    Encoded date                : UTC 2020-12-03 04:50:40
    Writing application         : mkvmerge v51.0.0 ('I Wish') 64-bit
    Writing library             : libebml v1.4.0 + libmatroska v1.6.2
    Attachments                 : CINEMANIAHD.png

    Video
    ID                          : 1
    Format                      : AVC
    Format/Info                 : Advanced Video Codec
    Format profile              : High@L4.1
    Format settings             : CABAC / 4 Ref Frames
    Format settings, CABAC      : Yes
    Format settings, Reference  : 4 frames
    Codec ID                    : V_MPEG4/ISO/AVC
    Duration                    : 1 h 37 min
    Bit rate mode               : Variable
    Bit rate                    : 29.7 Mb/s
    Maximum bit rate            : 35.0 Mb/s
    Width                       : 1 920 pixels
    Height                      : 1 080 pixels
    Display aspect ratio        : 16:9
    Frame rate mode             : Constant
    Frame rate                  : 23.976 (24000/1001) FPS
    Standard                    : NTSC
    Color space                 : YUV
    Chroma subsampling          : 4:2:0
    Bit depth                   : 8 bits
    Scan type                   : Progressive
    Bits/(Pixel*Frame)          : 0.598
    Stream size                 : 20.3 GiB (86%)
    Title                       : REMUX HD1080p [CinemaniaHDD]
    Language                    : English
    Default                     : Yes
    Forced                      : No
    Color range                 : Limited
    Color primaries             : BT.709
    Transfer characteristics    : BT.709
    Matrix coefficients         : BT.709

    Audio #1
    ID                          : 2
    Format                      : AC-3
    Format/Info                 : Audio Coding 3
    Commercial name             : Dolby Digital
    Codec ID                    : A_AC3
    Duration                    : 1 h 37 min
    Bit rate mode               : Constant
    Bit rate                    : 640 kb/s
    Channel(s)                  : 6 channels
    Channel layout              : L R C LFE Ls Rs
    Sampling rate               : 48.0 kHz
    Frame rate                  : 31.250 FPS (1536 SPF)
    Compression mode            : Lossy
    Stream size                 : 448 MiB (2%)
    Title                       : Español Latino [CinemaniaHDD]
    Language                    : Spanish
    Service kind                : Complete Main
    Default                     : Yes
    Forced                      : No

    Audio #2
    ID                          : 3
    Format                      : MLP FBA
    Format/Info                 : Meridian Lossless Packing FBA
    Commercial name             : Dolby TrueHD
    Codec ID                    : A_TRUEHD
    Duration                    : 1 h 37 min
    Bit rate mode               : Variable
    Bit rate                    : 3 367 kb/s
    Maximum bit rate            : 5 013 kb/s
    Channel(s)                  : 6 channels
    Channel layout              : L R C LFE Ls Rs
    Sampling rate               : 48.0 kHz
    Frame rate                  : 1 200.000 FPS (40 SPF)
    Compression mode            : Lossless
    Stream size                 : 2.30 GiB (10%)
    Title                       : Ingles THD [CinemaniaHDD]
    Language                    : English
    Default                     : No
    Forced                      : No

    Audio #3
    ID                          : 4
    Format                      : AC-3
    Format/Info                 : Audio Coding 3
    Commercial name             : Dolby Digital
    Codec ID                    : A_AC3
    Duration                    : 1 h 37 min
    Bit rate mode               : Constant
    Bit rate                    : 640 kb/s
    Channel(s)                  : 6 channels
    Channel layout              : L R C LFE Ls Rs
    Sampling rate               : 48.0 kHz
    Frame rate                  : 31.250 FPS (1536 SPF)
    Compression mode            : Lossy
    Stream size                 : 448 MiB (2%)
    Title                       : Ingles AC3 [CinemaniaHDD]
    Language                    : English
    Service kind                : Complete Main
    Default                     : No
    Forced                      : No

    Text #1
    ID                          : 5
    Format                      : UTF-8
    Codec ID                    : S_TEXT/UTF8
    Codec ID/Info               : UTF-8 Plain Text
    Duration                    : 1 h 31 min
    Bit rate                    : 0 b/s
    Count of elements           : 15
    Stream size                 : 410 Bytes (0%)
    Title                       : Forzados-SRT [CinemaniaHDD]
    Language                    : Spanish
    Default                     : Yes
    Forced                      : No

    Text #2
    ID                          : 6
    Format                      : UTF-8
    Codec ID                    : S_TEXT/UTF8
    Codec ID/Info               : UTF-8 Plain Text
    Duration                    : 1 h 32 min
    Bit rate                    : 63 b/s
    Count of elements           : 1204
    Stream size                 : 43.2 KiB (0%)
    Title                       : Español-SRT [CinemaniaHDD]
    Language                    : Spanish
    Default                     : No
    Forced                      : No

    Text #3
    ID                          : 7
    Format                      : UTF-8
    Codec ID                    : S_TEXT/UTF8
    Codec ID/Info               : UTF-8 Plain Text
    Duration                    : 1 h 31 min
    Bit rate                    : 57 b/s
    Count of elements           : 1303
    Stream size                 : 38.4 KiB (0%)
    Title                       : Ingles-SRT [CinemaniaHDD]
    Language                    : Spanish
    Default                     : No
    Forced                      : No

    Menu
    00:00:00.000                : en:Chapter 01
    00:13:44.740                : en:Chapter 02
    00:28:56.776                : en:Chapter 03
    00:42:05.147                : en:Chapter 04
    00:54:10.205                : en:Chapter 05
    01:06:49.880                : en:Chapter 06
    01:22:01.708                : en:Chapter 07
    01:33:05.496                : en:Chapter 08

  • Peso: 23.5 GiB

Sinopsis

Descargar La Rosa Venenosa (2019) REMUX 1080p Latino. Carson Phillips es una antigua estrella del fútbol americano que decide convertirse en policía. El último de sus casos trata sobre una serie de desapariciones que podría ser una rutina premeditada. Cuando Carson se da cuenta de que estas desapariciones son producto de una red de crímenes y que su hija es la principal sospechosa; este agente tendrá las horas contadas para salvar a la joven, resolver los asesinatos y destapar los oscuros secretos que se ocultan en la ciudad.

Español Latino AC3 5.1 WebDL – Ingles TrueHD & AC3 5.1 Bluray

Ficha técnica

Video trailer de la película

Enlaces de descarga

Rip de Bluray

Descargar La Rosa Venenosa (2019) REMUX 1080p Latino




Aportes de DPeliculasHDmega la pass es:dpeliculashdmega.org Aportes de CinemaniaHD la pass es:cinemaniahdd.com
Guardado en : Crimen , Remux , Suspenso

Películas relacionadas

descargar La Rosa Venenosa (2019) REMUX 1080p Latino Full 1080p 1080p gratis, La Rosa Venenosa (2019) REMUX 1080p Latino Full 1080p mega 1 link, La Rosa Venenosa (2019) REMUX 1080p Latino Full 1080p pelicula completa, descargar La Rosa Venenosa (2019) REMUX 1080p Latino Full 1080p gratis en mega.

La Rosa Venenosa (2019) REMUX 1080p Latino pelicula full hd, La Rosa Venenosa (2019) REMUX 1080p Latino mega latino, La Rosa Venenosa (2019) REMUX 1080p Latino 4k latino, La Rosa Venenosa (2019) REMUX 1080p Latino pelicula completa, La Rosa Venenosa (2019) REMUX 1080p Latino descargar gratis, descargar La Rosa Venenosa (2019) REMUX 1080p Latino pelicula latino, La Rosa Venenosa (2019) REMUX 1080p Latino 1 link mega, La Rosa Venenosa (2019) REMUX 1080p Latino 1 link google drive, La Rosa Venenosa (2019) REMUX 1080p Latino hd 1080p latino.
Comentarios 0