La Rosa Amarilla (2019) PLACEBO Full HD 1080p Latino

181 vistas

Información de La Rosa Amarilla (2019) PLACEBO Full HD 1080p Latino

Datos de la película

  • Calidad: Full 1080p
  • Audio: Español Latino AC3 5.1 WEB-DL - Ingles DTS 5.1 BLURAY
  • Subtitulos: Español Latino PGS - Ingles PGS
  • Resolución: 1920x1080p
  • Formato: MKV
  • Codec: H.264
  • Encoder: Melkor
  • Mediainfo: Clic para Mostrar Datos Ver
  • La Rosa Amarilla (2019) PLACEBO 1080p Latino.mkv
    Format                      : Matroska
    Format version              : Version 4
    File size                   : 4.30 GiB
    Duration                    : 1 h 34 min
    Overall bit rate            : 6 520 kb/s
    Movie name                  : Yellow Rose (2019) CinemaniaHDD.Net
    Encoded date                : UTC 2022-01-13 22:49:32
    Writing application         : mkvmerge v56.1.0 ('My Friend') 64-bit
    Writing library             : libebml v1.4.2 + libmatroska v1.6.4
    Attachments                 : CINEMANIAHD.png

    Video
    ID                          : 1
    Format                      : AVC
    Format/Info                 : Advanced Video Codec
    Format profile              : High@L4.1
    Format settings             : CABAC / 4 Ref Frames
    Format settings, CABAC      : Yes
    Format settings, Reference  : 4 frames
    Codec ID                    : V_MPEG4/ISO/AVC
    Duration                    : 1 h 34 min
    Bit rate                    : 4 603 kb/s
    Width                       : 1 920 pixels
    Height                      : 1 080 pixels
    Display aspect ratio        : 16:9
    Frame rate mode             : Constant
    Frame rate                  : 23.976 (24000/1001) FPS
    Color space                 : YUV
    Chroma subsampling          : 4:2:0
    Bit depth                   : 8 bits
    Scan type                   : Progressive
    Bits/(Pixel*Frame)          : 0.093
    Stream size                 : 3.04 GiB (71%)
    Title                       : Full HD1080p [CinemaniaHDD]
    Writing library             : x264 core 163 r3059 b684ebe0
    Encoding settings           : cabac=1 / ref=4 / deblock=1:0:0 / analyse=0x3:0x133 / me=tesa / subme=11 / psy=1 / psy_rd=1.00:0.00 / mixed_ref=1 / me_range=24 / chroma_me=1 / trellis=2 / 8x8dct=1 / cqm=0 / deadzone=21,11 / fast_pskip=0 / chroma_qp_offset=-2 / threads=24 / lookahead_threads=6 / sliced_threads=0 / nr=0 / decimate=1 / interlaced=0 / bluray_compat=0 / constrained_intra=0 / bframes=16 / b_pyramid=2 / b_adapt=2 / b_bias=0 / direct=3 / weightb=1 / open_gop=0 / weightp=2 / keyint=240 / keyint_min=24 / scenecut=40 / intra_refresh=0 / rc_lookahead=60 / rc=crf / mbtree=1 / crf=19.0 / qcomp=0.60 / qpmin=0 / qpmax=69 / qpstep=4 / vbv_maxrate=62500 / vbv_bufsize=78125 / crf_max=0.0 / nal_hrd=none / filler=0 / ip_ratio=1.40 / aq=1:1.00
    Default                     : Yes
    Forced                      : Yes
    Color range                 : Limited
    Color primaries             : BT.709
    Transfer characteristics    : BT.709
    Matrix coefficients         : BT.709

    Audio #1
    ID                          : 2
    Format                      : AC-3
    Format/Info                 : Audio Coding 3
    Commercial name             : Dolby Digital
    Codec ID                    : A_AC3
    Duration                    : 1 h 34 min
    Bit rate mode               : Constant
    Bit rate                    : 384 kb/s
    Channel(s)                  : 6 channels
    Channel layout              : L R C LFE Ls Rs
    Sampling rate               : 48.0 kHz
    Frame rate                  : 31.250 FPS (1536 SPF)
    Compression mode            : Lossy
    Stream size                 : 259 MiB (6%)
    Title                       : Español Latino [CinemaniaHDD]
    Language                    : Spanish
    Service kind                : Complete Main
    Default                     : Yes
    Forced                      : Yes

    Audio #2
    ID                          : 3
    Format                      : DTS
    Format/Info                 : Digital Theater Systems
    Codec ID                    : A_DTS
    Duration                    : 1 h 34 min
    Bit rate mode               : Constant
    Bit rate                    : 1 509 kb/s
    Channel(s)                  : 6 channels
    Channel layout              : C L R Ls Rs LFE
    Sampling rate               : 48.0 kHz
    Frame rate                  : 93.750 FPS (512 SPF)
    Bit depth                   : 24 bits
    Compression mode            : Lossy
    Stream size                 : 1 019 MiB (23%)
    Title                       : Ingles [CinemaniaHDD]
    Language                    : English
    Default                     : No
    Forced                      : No

    Text #1
    ID                          : 4
    ID in the original source m : 4611 (0x1203)
    Format                      : PGS
    Muxing mode                 : zlib
    Codec ID                    : S_HDMV/PGS
    Codec ID/Info               : Picture based subtitle format used on BDs/HD-DVDs
    Duration                    : 1 h 32 min
    Bit rate                    : 23.1 kb/s
    Count of elements           : 2016
    Stream size                 : 15.3 MiB (0%)
    Title                       : Español-PGS [CinemaniaHDD]
    Language                    : Spanish
    Default                     : No
    Forced                      : No
    Original source medium      : Blu-ray

    Text #2
    ID                          : 5
    ID in the original source m : 4608 (0x1200)
    Format                      : PGS
    Muxing mode                 : zlib
    Codec ID                    : S_HDMV/PGS
    Codec ID/Info               : Picture based subtitle format used on BDs/HD-DVDs
    Duration                    : 1 h 28 min
    Bit rate                    : 24.3 kb/s
    Count of elements           : 1994
    Stream size                 : 15.4 MiB (0%)
    Title                       : Ingles-PGS [CinemaniaHDD]
    Language                    : English
    Default                     : No
    Forced                      : No
    Original source medium      : Blu-ray

    Text #3
    ID                          : 6
    Format                      : UTF-8
    Codec ID                    : S_TEXT/UTF8
    Codec ID/Info               : UTF-8 Plain Text
    Duration                    : 1 h 31 min
    Bit rate                    : 0 b/s
    Count of elements           : 11
    Stream size                 : 232 Bytes (0%)
    Title                       : Forzados-SRT [CinemaniaHDD]
    Language                    : Spanish
    Default                     : Yes
    Forced                      : Yes

    Text #4
    ID                          : 7
    Format                      : UTF-8
    Codec ID                    : S_TEXT/UTF8
    Codec ID/Info               : UTF-8 Plain Text
    Duration                    : 1 h 33 min
    Bit rate                    : 48 b/s
    Count of elements           : 1137
    Stream size                 : 33.1 KiB (0%)
    Title                       : Español-SRT [CinemaniaHDD]
    Language                    : Spanish
    Default                     : No
    Forced                      : No

    Menu
    00:00:00.000                : Chapter 01
    00:07:57.477                : Chapter 02
    00:11:01.410                : Chapter 03
    00:14:05.052                : Chapter 04
    00:21:59.818                : Chapter 05
    00:27:26.353                : Chapter 06
    00:31:40.064                : Chapter 07
    00:38:48.701                : Chapter 08
    00:45:10.958                : Chapter 09
    00:50:02.916                : Chapter 10
    00:56:21.920                : Chapter 11
    01:01:25.932                : Chapter 12
    01:07:30.254                : Chapter 13
    01:13:02.961                : Chapter 14
    01:18:39.256                : Chapter 15
    01:27:03.176                : Chapter 16
    01:30:13.699                : Chapter 17

  • Peso: 4.30 GiB

Sinopsis

Descargar La Rosa Amarilla (2019) PLACEBO Full HD 1080p Latino. Rose es una chica de 17 sin papeles procedente de filipinas que sueña con abandonar el pueblo de Texas (Estados Unidos) en el que reside para perseguir su sueño como cantante de música. Su mundo se viene abajo cuando Inmigración descubre y apresa a su madre, suceso que deja a Rose desamparada para sobrevivir al día a día. Sin otra opción que huir, la adolescente pone rumbo a la alocada ciudad de Austin, donde además de empezar a conocerse mejor a sí misma, tendrá que encontrar un nuevo hogar a toda costa

Ficha técnica

Video trailer de la película

Enlaces de descarga

Rip de Bluray

Descargar La Rosa Amarilla (2019) PLACEBO Full HD 1080p Latino




Aportes de DPeliculasHDmega la pass es:dpeliculashdmega.org Aportes de CinemaniaHD la pass es:cinemaniahdd.com

Películas relacionadas

La Rosa Amarilla (2019) PLACEBO Full HD 1080p Latino pelicula full hd, La Rosa Amarilla (2019) PLACEBO Full HD 1080p Latino mega latino, La Rosa Amarilla (2019) PLACEBO Full HD 1080p Latino 4k latino, La Rosa Amarilla (2019) PLACEBO Full HD 1080p Latino pelicula completa, La Rosa Amarilla (2019) PLACEBO Full HD 1080p Latino descargar gratis, descargar La Rosa Amarilla (2019) PLACEBO Full HD 1080p Latino pelicula latino, La Rosa Amarilla (2019) PLACEBO Full HD 1080p Latino 1 link mega, La Rosa Amarilla (2019) PLACEBO Full HD 1080p Latino 1 link google drive, La Rosa Amarilla (2019) PLACEBO Full HD 1080p Latino hd 1080p latino.
Comentarios 0