×

¿Problemas para descargar con Mozilla, EDGE? Deshabilita la opción "Abrir vinculos en una pestaña nueva" tal como lo muestra ésta imagen.

La reencarnación del demonio (2022) HD 1080p Latino

364 vistas

Información de La reencarnación del demonio (2022) HD 1080p Latino

Datos de la película

  • Calidad: 1080p
  • Audio: Español Latino AC3 2.0 WEB-DL - Ingles AC3 5.1 BLURAY
  • Subtitulos: Español Latino SRT- FORZADOS SRT
  • Resolución: 1920x804p
  • Formato: MKV
  • Codec: H.264
  • Encoder: Melkor
  • Mediainfo: Clic para Mostrar Datos Ver
  • La Reencarnación Del Demonio (2022) HD1080p Latino.mkv
    Format                      : Matroska
    Format version              : Version 4
    File size                   : 2.55 GiB
    Duration                    : 1 h 27 min
    Overall bit rate            : 4 153 kb/s
    Movie name                  : Jeepers Creepers. Reborn (2022) CinemaniaHDD.Net
    Encoded date                : UTC 2023-03-31 04:57:41
    Writing application         : mkvmerge v56.1.0 ('My Friend') 64-bit
    Writing library             : libebml v1.4.2 + libmatroska v1.6.4
    Attachments                 : CINEMANIAHD.png
    Site                        : CinemaniaHDD.Net
    Uploader                    : Melkor

    Video
    ID                          : 1
    Format                      : AVC
    Format/Info                 : Advanced Video Codec
    Format profile              : High@L4.1
    Format settings             : CABAC / 5 Ref Frames
    Format settings, CABAC      : Yes
    Format settings, Reference  : 5 frames
    Codec ID                    : V_MPEG4/ISO/AVC
    Duration                    : 1 h 27 min
    Bit rate                    : 3 500 kb/s
    Width                       : 1 920 pixels
    Height                      : 804 pixels
    Display aspect ratio        : 2.40:1
    Frame rate mode             : Constant
    Frame rate                  : 23.976 (24000/1001) FPS
    Color space                 : YUV
    Chroma subsampling          : 4:2:0
    Bit depth                   : 8 bits
    Scan type                   : Progressive
    Bits/(Pixel*Frame)          : 0.095
    Stream size                 : 2.12 GiB (83%)
    Title                       : HD1080p [CinemaniaHDD]
    Writing library             : x264 core 163 r3059 b684ebe0
    Encoding settings           : cabac=1 / ref=5 / deblock=1:-1:-1 / analyse=0x3:0x133 / me=umh / subme=9 / psy=1 / psy_rd=1.00:0.15 / mixed_ref=1 / me_range=16 / chroma_me=1 / trellis=2 / 8x8dct=1 / cqm=0 / deadzone=21,11 / fast_pskip=1 / chroma_qp_offset=-3 / threads=24 / lookahead_threads=2 / sliced_threads=0 / nr=0 / decimate=1 / interlaced=0 / bluray_compat=0 / constrained_intra=0 / bframes=3 / b_pyramid=2 / b_adapt=2 / b_bias=0 / direct=3 / weightb=1 / open_gop=0 / weightp=2 / keyint=240 / keyint_min=24 / scenecut=40 / intra_refresh=0 / rc_lookahead=60 / rc=abr / mbtree=1 / bitrate=3500 / ratetol=1.0 / qcomp=0.60 / qpmin=0 / qpmax=69 / qpstep=4 / vbv_maxrate=62500 / vbv_bufsize=78125 / nal_hrd=none / filler=0 / ip_ratio=1.40 / aq=1:1.00
    Default                     : Yes
    Forced                      : Yes
    Color range                 : Limited
    Color primaries             : BT.709
    Transfer characteristics    : BT.709
    Matrix coefficients         : BT.709

    Audio #1
    ID                          : 2
    Format                      : AC-3
    Format/Info                 : Audio Coding 3
    Commercial name             : Dolby Digital
    Codec ID                    : A_AC3
    Duration                    : 1 h 27 min
    Bit rate mode               : Constant
    Bit rate                    : 256 kb/s
    Channel(s)                  : 2 channels
    Channel layout              : L R
    Sampling rate               : 48.0 kHz
    Frame rate                  : 31.250 FPS (1536 SPF)
    Compression mode            : Lossy
    Delay relative to video     : -5 ms
    Stream size                 : 161 MiB (6%)
    Title                       : Español Latino [CinemaniaHDD]
    Language                    : Spanish
    Service kind                : Complete Main
    Default                     : Yes
    Forced                      : Yes

    Audio #2
    ID                          : 3
    Format                      : AC-3
    Format/Info                 : Audio Coding 3
    Commercial name             : Dolby Digital
    Codec ID                    : A_AC3
    Duration                    : 1 h 27 min
    Bit rate mode               : Constant
    Bit rate                    : 448 kb/s
    Channel(s)                  : 6 channels
    Channel layout              : L R C LFE Ls Rs
    Sampling rate               : 48.0 kHz
    Frame rate                  : 31.250 FPS (1536 SPF)
    Compression mode            : Lossy
    Delay relative to video     : -5 ms
    Stream size                 : 282 MiB (11%)
    Title                       : Ingles [CinemaniaHDD]
    Language                    : English
    Service kind                : Complete Main
    Default                     : No
    Forced                      : No

    Text #1
    ID                          : 4
    Format                      : UTF-8
    Codec ID                    : S_TEXT/UTF8
    Codec ID/Info               : UTF-8 Plain Text
    Duration                    : 18 min 16 s
    Bit rate                    : 0 b/s
    Count of elements           : 6
    Stream size                 : 128 Bytes (0%)
    Title                       : Forzados-SRT [CinemaniaHDD]
    Language                    : Spanish
    Default                     : Yes
    Forced                      : Yes

    Text #2
    ID                          : 5
    Format                      : UTF-8
    Codec ID                    : S_TEXT/UTF8
    Codec ID/Info               : UTF-8 Plain Text
    Duration                    : 1 h 20 min
    Bit rate                    : 39 b/s
    Count of elements           : 913
    Stream size                 : 23.2 KiB (0%)
    Title                       : Español-SRT [CinemaniaHDD]
    Language                    : Spanish
    Default                     : No
    Forced                      : No

    Text #3
    ID                          : 6
    Format                      : UTF-8
    Codec ID                    : S_TEXT/UTF8
    Codec ID/Info               : UTF-8 Plain Text
    Duration                    : 1 h 27 min
    Bit rate                    : 43 b/s
    Count of elements           : 1157
    Stream size                 : 28.2 KiB (0%)
    Title                       : Ingles [CinemaniaHDD]
    Language                    : English
    Default                     : No
    Forced                      : No

    Menu
    00:00:00.000                : Chapter 01
    00:12:52.480                : Chapter 02
    00:26:30.714                : Chapter 03
    00:39:44.590                : Chapter 04
    00:51:22.412                : Chapter 05
    01:02:17.108                : Chapter 06
    01:13:40.207                : Chapter 07
    01:23:24.165                : Chapter 08

  • Peso: 2.55 GiB

Sinopsis

Descargar La reencarnación del demonio (2022) HD 1080p Latino. El Horror Hound festival celebra su primer evento en Luisiana, donde atrae a cientos de fanes del terror; entre ellos se encuentra Laine que, obligada a asistir por Chase, su novio, comienza a experimentar premoniciones inexplicables y visiones inquietantes relacionadas con el pasado de la ciudad y con El Creeper. A medida que avanza el festival y el entretenimiento empapado de sangre se convierte en un frenesí, Laine cree que algo sobrenatural ha sido convocado y que ella está en el centro de todo

Ficha técnica

Video trailer de la película

Enlaces de descarga

Rip de Bluray

Descargar La reencarnación del demonio (2022) HD 1080p Latino




Aportes de DPeliculasHDmega la pass es:dpeliculashdmega.org Aportes de CinemaniaHD la pass es:cinemaniahdd.com Aportes recientes:cinemaniahdd.net
Guardado en : HD 1080p , Misterio , Suspenso , Terror

Películas relacionadas

  • Vanished Into the Night (2024) NF WEB-DL 1080p Latino

    Vanished Into the Night (2024) NF WEB-DL 1080p Latino

    2024
    Vanished Into the Night (2024) NF WEB-DL 1080p Latino

    1h 33m 2024

    Descargar Vanished Into the Night (2024) NF WEB-DL 1080p Latino. Un padre inmerso en un divorcio problemático...

    Director: Renato De Maria

    Género: Drama

    Actores: Riccardo Scamarcio

  • Inmaculada (2024) HD 1080p Latino

    Inmaculada (2024) HD 1080p Latino

    2024
    Inmaculada (2024) HD 1080p Latino

    1h 29m 2024

    Descargar Inmaculada (2024) HD 1080p Latino. Cecilia, una mujer de fe devota, recibe una calurosa bienvenida...

    Director: Valentina Scuro

    Género: HD 1080p

    Actores: Viviane Florentine Nicolai

  • Inmaculada (2024) PLACEBO Full HD 1080p Latino

    Inmaculada (2024) PLACEBO Full HD 1080p Latino

    2024
    Inmaculada (2024) PLACEBO Full HD 1080p Latino

    1h 29m 2024

    Descargar Inmaculada (2024) PLACEBO Full HD 1080p Latino. Cecilia, una mujer de fe devota, recibe una...

    Director: Valentina Scuro

    Género: FULL 1080p Plateadas

    Actores: Viviane Florentine Nicolai

  • Inmaculada (2024) REMUX 1080p Latino

    Inmaculada (2024) REMUX 1080p Latino

    2024
    Inmaculada (2024) REMUX 1080p Latino

    1h 29m 2024

    Descargar Inmaculada (2024) REMUX 1080p Latino. Cecilia, una mujer de fe devota, recibe una calurosa...

    Director: Valentina Scuro

    Género: Misterio

    Actores: Viviane Florentine Nicolai

descargar La reencarnación del demonio (2022) HD 1080p Latino 1080p 1080p gratis, La reencarnación del demonio (2022) HD 1080p Latino 1080p mega 1 link, La reencarnación del demonio (2022) HD 1080p Latino 1080p pelicula completa, descargar La reencarnación del demonio (2022) HD 1080p Latino 1080p gratis en mega.

La reencarnación del demonio (2022) HD 1080p Latino pelicula full hd, La reencarnación del demonio (2022) HD 1080p Latino mega latino, La reencarnación del demonio (2022) HD 1080p Latino 4k latino, La reencarnación del demonio (2022) HD 1080p Latino pelicula completa, La reencarnación del demonio (2022) HD 1080p Latino descargar gratis, descargar La reencarnación del demonio (2022) HD 1080p Latino pelicula latino, La reencarnación del demonio (2022) HD 1080p Latino 1 link mega, La reencarnación del demonio (2022) HD 1080p Latino 1 link google drive, La reencarnación del demonio (2022) HD 1080p Latino hd 1080p latino.
Comentarios 0