La Red De Corrupcion (2019) HD 1080p Latino

34 vistas
1 estrella2 estrellas3 estrellas4 estrellas5 estrellas (1 votos, promedio: 5,00 de 5)
Cargando...

Información de La Red De Corrupcion (2019) HD 1080p Latino

Datos de la película

  • Calidad: 1080p
  • Audio: Español Latino AC3 5.1 iTUNES - Ingles AC3 5.1 BLURAY
  • Subtitulos: Español Latino SRT- FORZADOS SRT
  • Resolución: 1920x804p
  • Formato: MKV
  • Codec: H.264
  • Encoder: Melkor
  • Mediainfo: Clic para Mostrar Datos Ver
  • La Red De Corrupcion (2019) HD 1080p Latino.mkv
    Format                      : Matroska
    Format version              : Version 4
    File size                   : 3.07 GiB
    Duration                    : 1 h 43 min
    Overall bit rate            : 4 241 kb/s
    Movie name                  : The Corrupted (2019) CinemaniaHDD.Net
    Encoded date                : UTC 2021-04-22 01:32:11
    Writing application         : mkvmerge v51.0.0 ('I Wish') 64-bit
    Writing library             : libebml v1.4.0 + libmatroska v1.6.2
    Attachments                 : CINEMANIAHD.png

    Video
    ID                          : 1
    Format                      : AVC
    Format/Info                 : Advanced Video Codec
    Format profile              : High@L4.1
    Format settings             : CABAC / 5 Ref Frames
    Format settings, CABAC      : Yes
    Format settings, Reference  : 5 frames
    Codec ID                    : V_MPEG4/ISO/AVC
    Duration                    : 1 h 43 min
    Bit rate                    : 3 500 kb/s
    Width                       : 1 920 pixels
    Height                      : 804 pixels
    Display aspect ratio        : 2.40:1
    Frame rate mode             : Constant
    Frame rate                  : 24.000 FPS
    Color space                 : YUV
    Chroma subsampling          : 4:2:0
    Bit depth                   : 8 bits
    Scan type                   : Progressive
    Bits/(Pixel*Frame)          : 0.094
    Stream size                 : 2.46 GiB (80%)
    Title                       : HD1080p [CinemaniaHDD]
    Writing library             : x264 core 157 r2935 545de2f
    Encoding settings           : cabac=1 / ref=5 / deblock=1:-1:-1 / analyse=0x3:0x133 / me=umh / subme=9 / psy=1 / psy_rd=1.00:0.15 / mixed_ref=1 / me_range=16 / chroma_me=1 / trellis=2 / 8x8dct=1 / cqm=0 / deadzone=21,11 / fast_pskip=1 / chroma_qp_offset=-3 / threads=24 / lookahead_threads=2 / sliced_threads=0 / nr=0 / decimate=1 / interlaced=0 / bluray_compat=0 / constrained_intra=0 / bframes=3 / b_pyramid=2 / b_adapt=2 / b_bias=0 / direct=3 / weightb=1 / open_gop=0 / weightp=2 / keyint=240 / keyint_min=24 / scenecut=40 / intra_refresh=0 / rc_lookahead=60 / rc=abr / mbtree=1 / bitrate=3500 / ratetol=1.0 / qcomp=0.60 / qpmin=0 / qpmax=69 / qpstep=4 / vbv_maxrate=62500 / vbv_bufsize=78125 / nal_hrd=none / filler=0 / ip_ratio=1.40 / aq=1:1.00
    Default                     : Yes
    Forced                      : Yes
    Color range                 : Limited
    Color primaries             : BT.709
    Transfer characteristics    : BT.709
    Matrix coefficients         : BT.709

    Audio #1
    ID                          : 2
    Format                      : AC-3
    Format/Info                 : Audio Coding 3
    Commercial name             : Dolby Digital
    Codec ID                    : A_AC3
    Duration                    : 1 h 43 min
    Bit rate mode               : Constant
    Bit rate                    : 384 kb/s
    Channel(s)                  : 6 channels
    Channel layout              : L R C LFE Ls Rs
    Sampling rate               : 48.0 kHz
    Frame rate                  : 31.250 FPS (1536 SPF)
    Compression mode            : Lossy
    Delay relative to video     : -5 ms
    Stream size                 : 284 MiB (9%)
    Title                       : Español Latino [CinemaniaHDD]
    Language                    : Spanish
    Service kind                : Complete Main
    Default                     : Yes
    Forced                      : Yes

    Audio #2
    ID                          : 3
    Format                      : AC-3
    Format/Info                 : Audio Coding 3
    Commercial name             : Dolby Digital
    Codec ID                    : A_AC3
    Duration                    : 1 h 43 min
    Bit rate mode               : Constant
    Bit rate                    : 448 kb/s
    Channel(s)                  : 6 channels
    Channel layout              : L R C LFE Ls Rs
    Sampling rate               : 48.0 kHz
    Frame rate                  : 31.250 FPS (1536 SPF)
    Compression mode            : Lossy
    Delay relative to video     : -5 ms
    Stream size                 : 332 MiB (11%)
    Title                       : Ingles [CinemaniaHDD]
    Language                    : English
    Service kind                : Complete Main
    Default                     : No
    Forced                      : No

    Text #1
    ID                          : 4
    Format                      : UTF-8
    Codec ID                    : S_TEXT/UTF8
    Codec ID/Info               : UTF-8 Plain Text
    Duration                    : 1 h 35 min
    Bit rate                    : 1 b/s
    Count of elements           : 28
    Stream size                 : 904 Bytes (0%)
    Title                       : Forzados-SRT [CinemaniaHDD]
    Language                    : Spanish
    Default                     : Yes
    Forced                      : No

    Text #2
    ID                          : 5
    Format                      : UTF-8
    Codec ID                    : S_TEXT/UTF8
    Codec ID/Info               : UTF-8 Plain Text
    Duration                    : 1 h 35 min
    Bit rate                    : 47 b/s
    Count of elements           : 1101
    Stream size                 : 33.7 KiB (0%)
    Title                       : Español-SRT [CinemaniaHDD]
    Language                    : Spanish
    Default                     : No
    Forced                      : No

    Text #3
    ID                          : 6
    Format                      : UTF-8
    Codec ID                    : S_TEXT/UTF8
    Codec ID/Info               : UTF-8 Plain Text
    Duration                    : 1 h 35 min
    Bit rate                    : 49 b/s
    Count of elements           : 1118
    Stream size                 : 34.9 KiB (0%)
    Title                       : Ingles-SRT [CinemaniaHDD]
    Language                    : English
    Default                     : No
    Forced                      : No

    Menu
    00:00:00.000                : en:Chapter 01
    00:09:23.625                : en:Chapter 02
    00:20:19.625                : en:Chapter 03
    00:27:30.708                : en:Chapter 04
    00:36:40.750                : en:Chapter 05
    00:45:41.917                : en:Chapter 06
    00:54:24.042                : en:Chapter 07
    01:03:49.542                : en:Chapter 08
    01:12:10.625                : en:Chapter 09
    01:21:15.250                : en:Chapter 10
    01:28:39.125                : en:Chapter 11
    01:37:13.708                : en:Chapter 12

  • Peso: 3.07 GiB

Sinopsis

Descargar La Red De Corrupcion (2019) HD 1080p Latino. Con los Juegos Olímpicos de 2012 de Londres como telón de fondo, un exconvicto intenta volverse a ganar a su familia, pero rápidamente se ve envuelto en otra red de crimen y corrupción.

Ficha técnica

  • Titulo original: The Corrupted
  • Fecha de lanzamiento: 10-05-2019 (United Kingdom)
  • Director: Ron Scalpello
  • Género: Crimen, HD 1080p, Suspenso
  • Puntuación: 5.0 1 votos
  • Duración:
    1h 45m

Video trailer de la película

Enlaces de descarga

Rip de Bluray

Descargar La Red De Corrupcion (2019) HD 1080p Latino




Aportes de DPeliculasHDmega la pass es:dpeliculashdmega.org Aportes de CinemaniaHD la pass es:cinemaniahdd.com
Guardado en : Crimen , HD 1080p , Suspenso

Películas relacionadas

  • Ferry (2021) NF WEB-DL 1080p Latino

    Ferry (2021) NF WEB-DL 1080p Latino

    2021
    Ferry (2021) NF WEB-DL 1080p Latino

    5.0 1h 46m 2021

    Antes de levantar su imperio de drogas, Ferry Bouman vuelve a casa con una misión de venganza que pone...

    Director: Cecilia Verheyden

    Género: Acción

    Actores: Yannick van de Velde

  • I Am All Girls (2021) NF WEB-DL 1080p Latino

    I Am All Girls (2021) NF WEB-DL 1080p Latino

    2021
    I Am All Girls (2021) NF WEB-DL 1080p Latino

    5.0 1h 47m 2021

    Una detective implacable encuentra que tiene intereses en común con alguien que asesina sistemáticamente...

    Director: Donovan Marsh

    Género: Crimen

    Actores: Masasa Mbangeni

La Red De Corrupcion (2019) HD 1080p Latino pelicula full hd, La Red De Corrupcion (2019) HD 1080p Latino mega latino, La Red De Corrupcion (2019) HD 1080p Latino 4k latino, La Red De Corrupcion (2019) HD 1080p Latino pelicula completa, La Red De Corrupcion (2019) HD 1080p Latino descargar gratis, descargar La Red De Corrupcion (2019) HD 1080p Latino pelicula latino, La Red De Corrupcion (2019) HD 1080p Latino 1 link mega, La Red De Corrupcion (2019) HD 1080p Latino 1 link google drive, La Red De Corrupcion (2019) HD 1080p Latino hd 1080p latino.
Comentarios 0