×

¿Problemas para descargar con Mozilla, EDGE? Deshabilita la opción "Abrir vinculos en una pestaña nueva" tal como lo muestra ésta imagen.

La red Avispa (2020) WEB-DL 1080p Latino

363 vistas

Información de La red Avispa (2020) WEB-DL 1080p Latino

Datos de la película

  • Calidad:
  • Audio: Español Latino AC3 5.1 iTunes
  • Subtitulos: Español Latino SRT- FORZADOS SRT
  • Resolución: 1916x796
  • Formato: MKV
  • Codec: H.264
  • Encoder: CinemaniaHD
  • Mediainfo: Clic para Mostrar Datos Ver
  • Wasp Network (2019) WEB-DL 1080p Latino.mkv
    Format                      : Matroska
    Format version              : Version 4
    File size                   : 4.22 GiB
    Duration                    : 2 h 2 min
    Overall bit rate            : 4 939 kb/s
    Encoded date                : UTC 2020-04-23 15:53:54
    Writing application         : mkvmerge v42.0.0 ('Overtime') 64-bit
    Writing library             : libebml v1.3.10 + libmatroska v1.5.2

    Video
    ID                          : 1
    Format                      : AVC
    Format/Info                 : Advanced Video Codec
    Format profile              : High@L4
    Format settings             : CABAC / 5 Ref Frames
    Format settings, CABAC      : Yes
    Format settings, ReFrames   : 5 frames
    Codec ID                    : V_MPEG4/ISO/AVC
    Duration                    : 2 h 2 min
    Bit rate                    : 4 553 kb/s
    Width                       : 1 916 pixels
    Height                      : 796 pixels
    Display aspect ratio        : 2.40:1
    Frame rate mode             : Constant
    Frame rate                  : 25.000 FPS
    Color space                 : YUV
    Chroma subsampling          : 4:2:0
    Bit depth                   : 8 bits
    Scan type                   : Progressive
    Bits/(Pixel*Frame)          : 0.119
    Stream size                 : 3.89 GiB (92%)
    Language                    : English
    Default                     : Yes
    Forced                      : No
    Color range                 : Limited
    Color primaries             : BT.709
    Transfer characteristics    : BT.709
    Matrix coefficients         : BT.709

    Audio
    ID                          : 2
    Format                      : AC-3
    Format/Info                 : Audio Coding 3
    Commercial name             : Dolby Digital
    Codec ID                    : A_AC3
    Duration                    : 2 h 2 min
    Bit rate mode               : Constant
    Bit rate                    : 384 kb/s
    Channel(s)                  : 6 channels
    Channel layout              : L R C LFE Ls Rs
    Sampling rate               : 48.0 kHz
    Frame rate                  : 31.250 FPS (1536 SPF)
    Bit depth                   : 16 bits
    Compression mode            : Lossy
    Delay relative to video     : -40 ms
    Stream size                 : 336 MiB (8%)
    Language                    : Spanish
    Service kind                : Complete Main
    Default                     : No
    Forced                      : No

    Text #1
    ID                          : 3
    Format                      : UTF-8
    Codec ID                    : S_TEXT/UTF8
    Codec ID/Info               : UTF-8 Plain Text
    Duration                    : 1 h 43 min
    Bit rate                    : 84 b/s
    Count of elements           : 1636
    Stream size                 : 64.3 KiB (0%)
    Language                    : Spanish
    Default                     : No
    Forced                      : No

    Text #2
    ID                          : 4
    Format                      : UTF-8
    Codec ID                    : S_TEXT/UTF8
    Codec ID/Info               : UTF-8 Plain Text
    Duration                    : 1 h 57 min
    Bit rate                    : 24 b/s
    Count of elements           : 651
    Stream size                 : 20.8 KiB (0%)
    Language                    : Spanish
    Default                     : Yes
    Forced                      : No

    Menu
    00:00:00.000                : en:Chapitre 1
    00:11:14.160                : en:Chapitre 2
    00:20:11.480                : en:Chapitre 3
    00:29:50.720                : en:Chapitre 4
    00:40:16.440                : en:Chapitre 5
    00:50:26.840                : en:Chapitre 6
    00:57:25.960                : en:Chapitre 7
    01:09:59.960                : en:Chapitre 8
    01:17:06.640                : en:Chapitre 9
    01:27:02.640                : en:Chapitre 10
    01:39:52.320                : en:Chapitre 11
    01:50:22.000                : en:Chapitre 12
    01:56:22.200                : en:Chapitre 13

  • Peso: 4.22 GiB

Sinopsis

La Habana, principios de los 90. René González, piloto cubano, roba un avión y huye de Cuba, dejando atrás a su amada esposa e hija. Comienza una nueva vida en Miami. Otros desertores cubanos pronto le siguen e inician una red de espionaje. Su misión es infiltrarse en organizaciones anticastristas violentas, responsables de ataques terroristas en la isla.

INCLUYE SUB LATINO EN ESCENAS QUE NO ESTA DOBLADO

Ficha técnica

  • Titulo original: Wasp Network
  • Fecha de lanzamiento: 29-01-2020 (Belgium, Brazil, France, Spain)
  • Director: Olivier Assayas
  • Género: Suspenso

Video trailer de la película

Enlaces de descarga

Rip de Bluray

Descargar La red Avispa (2020) WEB-DL 1080p Latino




Aportes de DPeliculasHDmega la pass es:dpeliculashdmega.org Aportes de CinemaniaHD la pass es:cinemaniahdd.com
Guardado en : Suspenso

Películas relacionadas

descargar La red Avispa (2020) WEB-DL 1080p Latino 1080p gratis, La red Avispa (2020) WEB-DL 1080p Latino mega 1 link, La red Avispa (2020) WEB-DL 1080p Latino pelicula completa, descargar La red Avispa (2020) WEB-DL 1080p Latino gratis en mega.

La red Avispa (2020) WEB-DL 1080p Latino pelicula full hd, La red Avispa (2020) WEB-DL 1080p Latino mega latino, La red Avispa (2020) WEB-DL 1080p Latino 4k latino, La red Avispa (2020) WEB-DL 1080p Latino pelicula completa, La red Avispa (2020) WEB-DL 1080p Latino descargar gratis, descargar La red Avispa (2020) WEB-DL 1080p Latino pelicula latino, La red Avispa (2020) WEB-DL 1080p Latino 1 link mega, La red Avispa (2020) WEB-DL 1080p Latino 1 link google drive, La red Avispa (2020) WEB-DL 1080p Latino hd 1080p latino.
Comentarios 0