×

¿Problemas para descargar con Mozilla, EDGE? Deshabilita la opción "Abrir vinculos en una pestaña nueva" tal como lo muestra ésta imagen.

La red Avispa (2019) REMUX 1080p Latino-Ingles

260 vistas

Información de La red Avispa (2019) REMUX 1080p Latino-Ingles

Datos de la película

  • Calidad: Full 1080p
  • Audio: Se especifica abajo de la Sinopsis
  • Subtitulos: Español Latino SRT - Ingles SRT
  • Resolución: 1920x1080p
  • Formato: MKV
  • Codec: H.264
  • Encoder: CinefiloCool
  • Mediainfo: Clic para Mostrar Datos Ver
  • La Red Avispa (2019) REMUX 1080p Latino-CMHDD.mkv
    Format                      : Matroska
    Format version              : Version 4
    File size                   : 29.0 GiB
    Duration                    : 2 h 7 min
    Overall bit rate mode       : Variable
    Overall bit rate            : 32.6 Mb/s
    Movie name                  : Wasp Network (2019) CinemaniaHDD.Net
    Encoded date                : UTC 2020-07-25 05:15:02
    Writing application         : mkvmerge v46.0.0 ('No Deeper Escape') 64-bit
    Writing library             : libebml v1.3.10 + libmatroska v1.5.2
    Attachments                 : CINEMANIAHD.png

    Video
    ID                          : 1
    ID in the original source m : 4113 (0x1011)
    Format                      : AVC
    Format/Info                 : Advanced Video Codec
    Format profile              : High@L4.1
    Format settings             : CABAC / 4 Ref Frames
    Format settings, CABAC      : Yes
    Format settings, Reference  : 4 frames
    Codec ID                    : V_MPEG4/ISO/AVC
    Duration                    : 2 h 7 min
    Bit rate mode               : Variable
    Bit rate                    : 27.6 Mb/s
    Maximum bit rate            : 32.0 Mb/s
    Width                       : 1 920 pixels
    Height                      : 1 080 pixels
    Display aspect ratio        : 16:9
    Frame rate mode             : Constant
    Frame rate                  : 24.000 FPS
    Color space                 : YUV
    Chroma subsampling          : 4:2:0
    Bit depth                   : 8 bits
    Scan type                   : Progressive
    Bits/(Pixel*Frame)          : 0.555
    Stream size                 : 24.6 GiB (85%)
    Title                       : REMUX 1080p [CinemaniaHDD]
    Default                     : Yes
    Forced                      : Yes
    Original source medium      : Blu-ray

    Audio #1
    ID                          : 2
    ID in the original source m : 4355 (0x1103)
    Format                      : DTS XLL
    Format/Info                 : Digital Theater Systems
    Commercial name             : DTS-HD Master Audio
    Codec ID                    : A_DTS
    Duration                    : 2 h 7 min
    Bit rate mode               : Variable
    Bit rate                    : 3 464 kb/s
    Channel(s)                  : 6 channels
    Channel layout              : C L R Ls Rs LFE
    Sampling rate               : 48.0 kHz
    Frame rate                  : 93.750 FPS (512 SPF)
    Bit depth                   : 24 bits
    Compression mode            : Lossless
    Stream size                 : 3.08 GiB (11%)
    Title                       : Español Latino/Ingles [CinemaniaHDD]
    Language                    : Spanish
    Default                     : Yes
    Forced                      : Yes
    Original source medium      : Blu-ray

    Audio #2
    ID                          : 3
    Format                      : DTS
    Format/Info                 : Digital Theater Systems
    Codec ID                    : A_DTS
    Duration                    : 2 h 7 min
    Bit rate mode               : Constant
    Bit rate                    : 1 509 kb/s
    Channel(s)                  : 6 channels
    Channel layout              : C L R Ls Rs LFE
    Sampling rate               : 48.0 kHz
    Frame rate                  : 93.750 FPS (512 SPF)
    Bit depth                   : 24 bits
    Compression mode            : Lossy
    Stream size                 : 1.34 GiB (5%)
    Title                       : Español Latino/Ingles Core [CinemaniaHDD]
    Language                    : Spanish
    Default                     : No
    Forced                      : No

    Text #1
    ID                          : 4
    Format                      : UTF-8
    Codec ID                    : S_TEXT/UTF8
    Codec ID/Info               : UTF-8 Plain Text
    Duration                    : 2 h 6 min
    Bit rate                    : 20 b/s
    Count of elements           : 526
    Stream size                 : 19.3 KiB (0%)
    Title                       : Español-SRT [CinemaniaHDD]
    Language                    : Spanish
    Default                     : Yes
    Forced                      : Yes

    Text #2
    ID                          : 5
    Format                      : UTF-8
    Codec ID                    : S_TEXT/UTF8
    Codec ID/Info               : UTF-8 Plain Text
    Duration                    : 2 h 4 min
    Bit rate                    : 80 b/s
    Count of elements           : 1880
    Stream size                 : 72.9 KiB (0%)
    Title                       : Ingles-SRT [CinemaniaHDD]
    Language                    : English
    Default                     : No
    Forced                      : No

    Text #3
    ID                          : 6
    ID in the original source m : 4610 (0x1202)
    Format                      : PGS
    Muxing mode                 : zlib
    Codec ID                    : S_HDMV/PGS
    Codec ID/Info               : Picture based subtitle format used on BDs/HD-DVDs
    Duration                    : 2 h 6 min
    Bit rate                    : 41.0 kb/s
    Count of elements           : 4000
    Stream size                 : 37.1 MiB (0%)
    Title                       : Frances-PGS [CinemaniaHDD]
    Language                    : French
    Default                     : No
    Forced                      : No
    Original source medium      : Blu-ray

    Menu
    00:00:00.000                : en:Chapter 01
    00:11:43.167                : en:Chapter 02
    00:22:08.125                : en:Chapter 03
    00:33:51.375                : en:Chapter 04
    00:43:50.458                : en:Chapter 05
    00:55:11.500                : en:Chapter 06
    01:09:41.833                : en:Chapter 07
    01:19:58.625                : en:Chapter 08
    01:29:03.500                : en:Chapter 09
    01:37:52.958                : en:Chapter 10
    01:48:37.750                : en:Chapter 11
    02:01:13.125                : en:Chapter 12

  • Peso: 29.0 GiB

Sinopsis

Descargar La red Avispa (2019) REMUX 1080p Latino-Ingles. La Habana, Cuba, 1990. René González, un piloto de avión, huye inesperadamente del país, abandonando a su esposa Olga y a su hija Irma, y comienza una nueva vida en Miami, donde se convierte en miembro de una organización anticastrista.

Nota: El Audio Original es una Mezcla de ambos idiomas por lo que lleva solamente una pista mezclada entre ingles y español y subtitulos Forzados para cada uno.

Ficha técnica

Video trailer de la película

Enlaces de descarga

Rip de Bluray

Descargar La red Avispa (2019) REMUX 1080p Latino-Ingles




Aportes de DPeliculasHDmega la pass es:dpeliculashdmega.org Aportes de CinemaniaHD la pass es:cinemaniahdd.com
Guardado en : Drama , Historia , Remux , Suspenso

Películas relacionadas

descargar La red Avispa (2019) REMUX 1080p Latino-Ingles Full 1080p 1080p gratis, La red Avispa (2019) REMUX 1080p Latino-Ingles Full 1080p mega 1 link, La red Avispa (2019) REMUX 1080p Latino-Ingles Full 1080p pelicula completa, descargar La red Avispa (2019) REMUX 1080p Latino-Ingles Full 1080p gratis en mega.

La red Avispa (2019) REMUX 1080p Latino-Ingles pelicula full hd, La red Avispa (2019) REMUX 1080p Latino-Ingles mega latino, La red Avispa (2019) REMUX 1080p Latino-Ingles 4k latino, La red Avispa (2019) REMUX 1080p Latino-Ingles pelicula completa, La red Avispa (2019) REMUX 1080p Latino-Ingles descargar gratis, descargar La red Avispa (2019) REMUX 1080p Latino-Ingles pelicula latino, La red Avispa (2019) REMUX 1080p Latino-Ingles 1 link mega, La red Avispa (2019) REMUX 1080p Latino-Ingles 1 link google drive, La red Avispa (2019) REMUX 1080p Latino-Ingles hd 1080p latino.
Comentarios 0