×

¿Problemas para descargar con Mozilla, EDGE? Deshabilita la opción "Abrir vinculos en una pestaña nueva" tal como lo muestra ésta imagen.

La Purga Por Siempre (2021) WebDL 1080p Latino

268 vistas

Información de La Purga Por Siempre (2021) WebDL 1080p Latino

Datos de la película

  • Calidad: WEBDL
  • Audio: Español Latino AC3 2.0 WEB-DL - Ingles AC3 5.1 WEB-DL
  • Subtitulos: Español Latino SRT- FORZADOS SRT
  • Resolución: 1918x1038p
  • Formato: MKV
  • Codec: H.264
  • Encoder: Melkor
  • Mediainfo: Clic para Mostrar Datos Ver
  • La Purga Por Siempre (2021) WebDL 1080p Latino.mkv
    Format                      : Matroska
    Format version              : Version 4
    File size                   : 5.25 GiB
    Duration                    : 1 h 43 min
    Overall bit rate            : 7 265 kb/s
    Movie name                  : The Forever Purge (2021) CinemaniaHDD.Net
    Encoded date                : UTC 2021-07-22 17:24:48
    Writing application         : mkvmerge v56.1.0 ('My Friend') 64-bit
    Writing library             : libebml v1.4.2 + libmatroska v1.6.4
    Attachments                 : CINEMANIAHD.png

    Video
    ID                          : 1
    Format                      : AVC
    Format/Info                 : Advanced Video Codec
    Format profile              : High@L4
    Format settings             : CABAC / 4 Ref Frames
    Format settings, CABAC      : Yes
    Format settings, Reference  : 4 frames
    Codec ID                    : V_MPEG4/ISO/AVC
    Duration                    : 1 h 43 min
    Bit rate                    : 6 623 kb/s
    Width                       : 1 918 pixels
    Height                      : 1 038 pixels
    Display aspect ratio        : 1.85:1
    Frame rate mode             : Constant
    Frame rate                  : 23.976 (24000/1001) FPS
    Color space                 : YUV
    Chroma subsampling          : 4:2:0
    Bit depth                   : 8 bits
    Scan type                   : Progressive
    Bits/(Pixel*Frame)          : 0.139
    Stream size                 : 4.79 GiB (91%)
    Title                       : WEB HD1080p [CinemaniaHDD]
    Default                     : Yes
    Forced                      : No
    Color range                 : Limited
    Color primaries             : BT.709
    Transfer characteristics    : BT.709
    Matrix coefficients         : BT.709

    Audio #1
    ID                          : 2
    Format                      : AC-3
    Format/Info                 : Audio Coding 3
    Commercial name             : Dolby Digital
    Codec ID                    : A_AC3
    Duration                    : 1 h 43 min
    Bit rate mode               : Constant
    Bit rate                    : 256 kb/s
    Channel(s)                  : 2 channels
    Channel layout              : L R
    Sampling rate               : 48.0 kHz
    Frame rate                  : 31.250 FPS (1536 SPF)
    Compression mode            : Lossy
    Stream size                 : 189 MiB (4%)
    Title                       : Español Latino [CinemaniaHDD]
    Language                    : Spanish
    Service kind                : Complete Main
    Default                     : Yes
    Forced                      : No

    Audio #2
    ID                          : 3
    Format                      : AC-3
    Format/Info                 : Audio Coding 3
    Commercial name             : Dolby Digital
    Codec ID                    : A_AC3
    Duration                    : 1 h 43 min
    Bit rate mode               : Constant
    Bit rate                    : 384 kb/s
    Channel(s)                  : 6 channels
    Channel layout              : L R C LFE Ls Rs
    Sampling rate               : 48.0 kHz
    Frame rate                  : 31.250 FPS (1536 SPF)
    Compression mode            : Lossy
    Stream size                 : 284 MiB (5%)
    Title                       : Ingles [CinemaniaHDD]
    Language                    : English
    Service kind                : Complete Main
    Default                     : No
    Forced                      : No

    Text #1
    ID                          : 4
    Format                      : UTF-8
    Codec ID                    : S_TEXT/UTF8
    Codec ID/Info               : UTF-8 Plain Text
    Duration                    : 1 h 33 min
    Bit rate                    : 1 b/s
    Count of elements           : 33
    Stream size                 : 890 Bytes (0%)
    Title                       : Forzados-SRT [CinemaniaHDD]
    Language                    : Spanish
    Default                     : Yes
    Forced                      : No

    Text #2
    ID                          : 5
    Format                      : UTF-8
    Codec ID                    : S_TEXT/UTF8
    Codec ID/Info               : UTF-8 Plain Text
    Duration                    : 1 h 33 min
    Bit rate                    : 45 b/s
    Count of elements           : 1020
    Stream size                 : 31.0 KiB (0%)
    Title                       : Español-SRT [CinemaniaHDD]
    Language                    : Spanish
    Default                     : No
    Forced                      : No

    Text #3
    ID                          : 6
    Format                      : UTF-8
    Codec ID                    : S_TEXT/UTF8
    Codec ID/Info               : UTF-8 Plain Text
    Duration                    : 1 h 30 min
    Bit rate                    : 2 b/s
    Count of elements           : 78
    Stream size                 : 1.78 KiB (0%)
    Title                       : Ingles-SRT [CinemaniaHDD]
    Language                    : English
    Default                     : No
    Forced                      : Yes

    Menu
    00:00:00.000                : Scene 1
    00:04:59.966                : Scene 2
    00:11:22.766                : Scene 3
    00:18:09.464                : Scene 4
    00:23:43.173                : Scene 5
    00:29:00.407                : Scene 6
    00:36:27.604                : Scene 7
    00:42:38.183                : Scene 8
    00:45:31.147                : Scene 9
    00:52:23.852                : Scene 10
    01:00:30.588                : Scene 11
    01:05:46.321                : Scene 12
    01:12:46.783                : Scene 13
    01:18:10.023                : Scene 14
    01:25:18.660                : Scene 15
    01:32:07.902                : Scene 16

  • Peso: 5.25 GiB

Sinopsis

Descargar La Purga Por Siempre (2021) WebDL 1080p Latino. Para los miembros de un movimiento clandestino, ya no es suficiente una noche anual de anarquía y asesinatos, así que deciden devolver a Estados Unidos el caos y las masacres sin fin, donde nadie volverá a estar a salvo… jamás. Adela y su esposo Juan viven en Texas, donde él trabaja como peón en un rancho para la adinerada familia Tucker. En la mañana después de la tradicional purga, una banda de asesinos enmascarados ataca violenta e ilegalmente a la familia Tucker. Tras este hecho, la familia texana se ve obligada a unirse con Juan y su esposa para enfrentar un país entero a punto de colapsar, que se hunde en un mar de caos y de sangre. Quinta y última entrega de la saga ‘The Purge’.

Ficha técnica

Video trailer de la película

Enlaces de descarga

Rip de Bluray

Descargar La Purga Por Siempre (2021) WebDL 1080p Latino




Aportes de DPeliculasHDmega la pass es:dpeliculashdmega.org Aportes de CinemaniaHD la pass es:cinemaniahdd.com
Guardado en : Acción , Aventura , Suspenso , Terror , Western

Películas relacionadas

  • Un mundo extraño (2022) HD 1080p Latino

    Un mundo extraño (2022) HD 1080p Latino

    2022
    Un mundo extraño (2022) HD 1080p Latino

    1h 42m 2022

    Descargar Un mundo extraño (2022) HD 1080p Latino. Los Clades son una familia conocida en todo el mundo,...

    Director: Thai Bettistea

    Género: Animación

    Actores: Reed Buck

  • Un mundo extraño (2022) REMUX 1080p Latino

    Un mundo extraño (2022) REMUX 1080p Latino

    2022
    Un mundo extraño (2022) REMUX 1080p Latino

    1h 42m 2022

    Descargar Un mundo extraño (2022) REMUX 1080p. Un viaje a una tierra inexplorada y traicionera en la...

    Director: Thai Bettistea

    Género: Animación

    Actores: Reed Buck

  • Lobo Vikingo (2022) NF WEB-DL 1080p Latino

    Lobo Vikingo (2022) NF WEB-DL 1080p Latino

    2022
    Lobo Vikingo (2022) NF WEB-DL 1080p Latino

    1h 38m 2022

    Descargar Lobo Vikingo (2022) NF WEB-DL 1080p Latino. Thale (17) acaba de mudarse con sus padres a un...

    Director: Stig Svendsen

    Género: Netflix

    Actores: Vidar Magnussen

  • Infiesto (2023) NF WEB-DL 1080p Castellano

    Infiesto (2023) NF WEB-DL 1080p Castellano

    2023
    Infiesto (2023) NF WEB-DL 1080p Castellano

    1h 36m 2023

    Descargar Infiesto (2023) NF WEB-DL 1080p Castellano. Mientras el coronavirus trastoca sus vidas, dos...

    Director: Patxi Amezcua

    Género: Crimen

    Actores: Luis Zahera

descargar La Purga Por Siempre (2021) WebDL 1080p Latino WEBDL 1080p gratis, La Purga Por Siempre (2021) WebDL 1080p Latino WEBDL mega 1 link, La Purga Por Siempre (2021) WebDL 1080p Latino WEBDL pelicula completa, descargar La Purga Por Siempre (2021) WebDL 1080p Latino WEBDL gratis en mega.

La Purga Por Siempre (2021) WebDL 1080p Latino pelicula full hd, La Purga Por Siempre (2021) WebDL 1080p Latino mega latino, La Purga Por Siempre (2021) WebDL 1080p Latino 4k latino, La Purga Por Siempre (2021) WebDL 1080p Latino pelicula completa, La Purga Por Siempre (2021) WebDL 1080p Latino descargar gratis, descargar La Purga Por Siempre (2021) WebDL 1080p Latino pelicula latino, La Purga Por Siempre (2021) WebDL 1080p Latino 1 link mega, La Purga Por Siempre (2021) WebDL 1080p Latino 1 link google drive, La Purga Por Siempre (2021) WebDL 1080p Latino hd 1080p latino.
Comentarios 0