×

¿Problemas para descargar con Mozilla, EDGE? Deshabilita la opción "Abrir vinculos en una pestaña nueva" tal como lo muestra ésta imagen.

La propuesta (2009) HD 1080p Latino – CMHDD

382 vistas

Información de La propuesta (2009) HD 1080p Latino – CMHDD

Datos de la película

  • Calidad: 1080p
  • Audio: Español Latino AC3 5.1 BLURAY - Ingles AC3 5.1 BLURAY
  • Subtitulos: Español Latino SRT- FORZADOS SRT
  • Resolución: 1920x800p
  • Formato: MKV
  • Codec: H.264
  • Encoder: Dracarys
  • Mediainfo: Clic para Mostrar Datos Ver
  • Format                      : Matroska
    Format version              : Version 4
    File size                   : 3.56 GiB
    Duration                    : 1 h 47 min
    Overall bit rate            : 4 730 kb/s
    Movie name                  : La propuesta (2009) HD 1080p Latino - CMHDD
    Encoded date                : UTC 2020-09-18 20:42:14
    Writing application         : mkvmerge v46.0.0 ('No Deeper Escape') 64-bit
    Writing library             : libebml v1.3.10 + libmatroska v1.5.2

    Video
    ID                          : 1
    Format                      : AVC
    Format/Info                 : Advanced Video Codec
    Format profile              : High@L4.1
    Format settings             : CABAC / 5 Ref Frames
    Format settings, CABAC      : Yes
    Format settings, Reference  : 5 frames
    Codec ID                    : V_MPEG4/ISO/AVC
    Duration                    : 1 h 47 min
    Bit rate                    : 3 500 kb/s
    Width                       : 1 920 pixels
    Height                      : 800 pixels
    Display aspect ratio        : 2.40:1
    Frame rate mode             : Constant
    Frame rate                  : 23.976 (24000/1001) FPS
    Color space                 : YUV
    Chroma subsampling          : 4:2:0
    Bit depth                   : 8 bits
    Scan type                   : Progressive
    Bits/(Pixel*Frame)          : 0.095
    Stream size                 : 2.60 GiB (73%)
    Writing library             : x264 core 157 r2935 545de2f
    Encoding settings           : cabac=1 / ref=5 / deblock=1:0:0 / analyse=0x3:0x113 / me=hex / subme=8 / psy=1 / psy_rd=1.00:0.00 / mixed_ref=1 / me_range=16 / chroma_me=1 / trellis=2 / 8x8dct=1 / cqm=0 / deadzone=21,11 / fast_pskip=1 / chroma_qp_offset=-2 / threads=24 / lookahead_threads=4 / sliced_threads=0 / nr=0 / decimate=1 / interlaced=0 / bluray_compat=0 / constrained_intra=0 / bframes=3 / b_pyramid=2 / b_adapt=1 / b_bias=0 / direct=3 / weightb=1 / open_gop=0 / weightp=2 / keyint=240 / keyint_min=24 / scenecut=40 / intra_refresh=0 / rc_lookahead=50 / rc=abr / mbtree=1 / bitrate=3500 / ratetol=1.0 / qcomp=0.60 / qpmin=0 / qpmax=69 / qpstep=4 / vbv_maxrate=62500 / vbv_bufsize=78125 / nal_hrd=none / filler=0 / ip_ratio=1.40 / aq=1:1.00
    Default                     : Yes
    Forced                      : No
    Color range                 : Limited
    Color primaries             : BT.709
    Transfer characteristics    : BT.709
    Matrix coefficients         : BT.709

    Audio #1
    ID                          : 2
    Format                      : AC-3
    Format/Info                 : Audio Coding 3
    Commercial name             : Dolby Digital
    Codec ID                    : A_AC3
    Duration                    : 1 h 47 min
    Bit rate mode               : Constant
    Bit rate                    : 640 kb/s
    Channel(s)                  : 6 channels
    Channel layout              : L R C LFE Ls Rs
    Sampling rate               : 48.0 kHz
    Frame rate                  : 31.250 FPS (1536 SPF)
    Compression mode            : Lossy
    Delay relative to video     : -5 ms
    Stream size                 : 493 MiB (14%)
    Language                    : Spanish
    Service kind                : Complete Main
    Default                     : Yes
    Forced                      : No

    Audio #2
    ID                          : 3
    Format                      : AC-3
    Format/Info                 : Audio Coding 3
    Commercial name             : Dolby Digital
    Codec ID                    : A_AC3
    Duration                    : 1 h 47 min
    Bit rate mode               : Constant
    Bit rate                    : 640 kb/s
    Channel(s)                  : 6 channels
    Channel layout              : L R C LFE Ls Rs
    Sampling rate               : 48.0 kHz
    Frame rate                  : 31.250 FPS (1536 SPF)
    Compression mode            : Lossy
    Delay relative to video     : -5 ms
    Stream size                 : 493 MiB (14%)
    Language                    : English
    Service kind                : Complete Main
    Default                     : No
    Forced                      : No

    Text #1
    ID                          : 4
    Format                      : UTF-8
    Codec ID                    : S_TEXT/UTF8
    Codec ID/Info               : UTF-8 Plain Text
    Duration                    : 1 h 36 min
    Bit rate                    : 0 b/s
    Count of elements           : 13
    Stream size                 : 281 Bytes (0%)
    Language                    : Spanish
    Default                     : Yes
    Forced                      : No

    Text #2
    ID                          : 5
    Format                      : UTF-8
    Codec ID                    : S_TEXT/UTF8
    Codec ID/Info               : UTF-8 Plain Text
    Duration                    : 1 h 45 min
    Bit rate                    : 62 b/s
    Count of elements           : 1446
    Stream size                 : 48.1 KiB (0%)
    Language                    : Spanish
    Default                     : No
    Forced                      : No

    Menu
    00:00:00.000                : :Chapter 1
    00:08:55.535                : :Chapter 2
    00:19:23.871                : :Chapter 3
    00:29:32.104                : :Chapter 4
    00:37:17.402                : :Chapter 5
    00:47:06.449                : :Chapter 6
    00:56:31.138                : :Chapter 7
    01:06:25.899                : :Chapter 8
    01:17:55.171                : :Chapter 9
    01:25:32.419                : :Chapter 10
    01:37:40.980                : :Chapter 11
    01:43:02.426                : :Chapter 12

  • Peso: 3.56 GiB

Sinopsis

Margaret (Sandra Bullock) es una poderosa y estricta editora de gran éxito de Nueva York que, por un problema con su visado, de repente se enfrenta a ser deportada a Canadá, su país de origen. Para evitarlo y poder mantener su visa en Estados Unidos, la astuta ejecutiva declara que está comprometida con su joven asistente Andrew (Ryan Reynolds), al que lleva torturando durante años. Andrew acepta participar en la farsa, pero con algunas condiciones. La «pareja» se dirige entonces a Alaska a conocer la peculiar familia de él, y la ejecutiva de ciudad, acostumbrada a tener todo bajo control, se encuentra inmersa en situaciones surrealistas que escapan a cualquier lógica conocida. Con planes de boda en camino y un agente de inmigración tras sus pasos, Margaret y Andrew se comprometen a seguir con el plan previsto pese a las consecuencias.

Ficha técnica

Video trailer de la película

Enlaces de descarga

Rip de Bluray

Descargar La propuesta (2009) HD 1080p Latino – CMHDD




Aportes de DPeliculasHDmega la pass es:dpeliculashdmega.org Aportes de CinemaniaHD la pass es:cinemaniahdd.com
Guardado en : Comedia , Drama , HD 1080p , Romance

Películas relacionadas

  • Zola (2020) HD 1080p Latino

    Zola (2020) HD 1080p Latino

    2020
    Zola (2020) HD 1080p Latino

    1h 26m 2020

    Descargar Zola (2020) HD 1080p Latino. Una camarera accede a acompañar a una bailarina exótica, su...

    Director: Sheri Davani

    Género: Comedia

    Actores: Ts Madison

  • Zola (2020) PLACEBO Full HD 1080p Latino

    Zola (2020) PLACEBO Full HD 1080p Latino

    2020
    Zola (2020) PLACEBO Full HD 1080p Latino

    1h 26m 2020

    Descargar Zola (2020) PLACEBO Full HD 1080p Latino. Una camarera accede a acompañar a una bailarina...

    Director: Sheri Davani

    Género: Comedia

    Actores: Ts Madison

  • Zola (2020) REMUX 1080p Latino

    Zola (2020) REMUX 1080p Latino

    2020
    Zola (2020) REMUX 1080p Latino

    1h 26m 2020

    Descargar Zola (2020) REMUX 1080p Latino. Una camarera accede a acompañar a una bailarina exótica,...

    Director: Sheri Davani

    Género: Comedia

    Actores: Ts Madison

descargar La propuesta (2009) HD 1080p Latino – CMHDD 1080p 1080p gratis, La propuesta (2009) HD 1080p Latino – CMHDD 1080p mega 1 link, La propuesta (2009) HD 1080p Latino – CMHDD 1080p pelicula completa, descargar La propuesta (2009) HD 1080p Latino – CMHDD 1080p gratis en mega.

La propuesta (2009) HD 1080p Latino – CMHDD pelicula full hd, La propuesta (2009) HD 1080p Latino – CMHDD mega latino, La propuesta (2009) HD 1080p Latino – CMHDD 4k latino, La propuesta (2009) HD 1080p Latino – CMHDD pelicula completa, La propuesta (2009) HD 1080p Latino – CMHDD descargar gratis, descargar La propuesta (2009) HD 1080p Latino – CMHDD pelicula latino, La propuesta (2009) HD 1080p Latino – CMHDD 1 link mega, La propuesta (2009) HD 1080p Latino – CMHDD 1 link google drive, La propuesta (2009) HD 1080p Latino – CMHDD hd 1080p latino.
Comentarios 0