La profecía del no nacido (2009) Full 1080p Latino

1.651 vistas
1 estrella2 estrellas3 estrellas4 estrellas5 estrellas (5 votos, promedio: 4,60 de 5)
Cargando…

Información de La profecía del no nacido (2009) Full 1080p Latino

Datos de la película

  • Calidad: Full 1080p
  • Audio: Español Latino DTS 5.1 BLURAY - Ingles DTS 5.1 BLURAY
  • Subtitulos: Español Latino PGS - Ingles PGS
  • Resolución: 1920x1080p
  • Formato: MKV
  • Codec: H.264
  • Encoder: Dracarys
  • Mediainfo: Clic para Mostrar Datos Ver
  • Format                                   : Matroska
    Format version                           : Version 4 / Version 2
    File size                                : 4.12 GiB
    Duration                                 : 1 h 28 min
    Overall bit rate                         : 6 644 kb/s
    Movie name                               : CinemaniaHDD.net
    Encoded date                             : UTC 2018-11-25 01:53:36 / UTC 2018-11-24T07:15:50Z
    Writing application                      : mkvmerge v15.0.0 ('Duel with the Devil') 64-bit
    Writing library                          : libebml v1.3.5 + libmatroska v1.4.5 / Lavf57.7.2

    Video
    ID                                       : 1
    Format                                   : AVC
    Format/Info                              : Advanced Video Codec
    Format profile                           : High@L4.1
    Format settings                          : CABAC / 4 Ref Frames
    Format settings, CABAC                   : Yes
    Format settings, RefFrames               : 4 frames
    Codec ID                                 : V_MPEG4/ISO/AVC
    Duration                                 : 1 h 28 min
    Bit rate                                 : 4 235 kb/s
    Width                                    : 1 920 pixels
    Height                                   : 1 080 pixels
    Display aspect ratio                     : 16:9
    Frame rate mode                          : Constant
    Frame rate                               : 23.976 (24000/1001) FPS
    Color space                              : YUV
    Chroma subsampling                       : 4:2:0
    Bit depth                                : 8 bits
    Scan type                                : Progressive
    Bits/(Pixel*Frame)                       : 0.085
    Stream size                              : 2.62 GiB (64%)
    Writing library                          : x264 core 148 r2708 86b7198
    Encoding settings                        : cabac=1 / ref=4 / deblock=1:0:0 / analyse=0x3:0x133 / me=esa / subme=10 / psy=1 / psy_rd=1.00:0.00 / mixed_ref=1 / me_range=24 / chroma_me=1 / trellis=2 / 8x8dct=1 / cqm=0 / deadzone=21,11 / fast_pskip=1 / chroma_qp_offset=-2 / threads=34 / lookahead_threads=5 / sliced_threads=0 / nr=0 / decimate=1 / interlaced=0 / bluray_compat=0 / constrained_intra=0 / bframes=8 / b_pyramid=2 / b_adapt=2 / b_bias=0 / direct=3 / weightb=1 / open_gop=0 / weightp=2 / keyint=240 / keyint_min=24 / scenecut=40 / intra_refresh=0 / rc_lookahead=60 / rc=crf / mbtree=1 / crf=20.0 / qcomp=0.60 / qpmin=0 / qpmax=69 / qpstep=4 / vbv_maxrate=62500 / vbv_bufsize=78125 / crf_max=0.0 / nal_hrd=none / filler=0 / ip_ratio=1.40 / aq=1:1.00
    Language                                 : English
    Default                                  : Yes
    Forced                                   : No
    Color range                              : Limited
    Color primaries                          : BT.709
    Transfer characteristics                 : BT.709
    Matrix coefficients                      : BT.709
    Statistics Tags Issue                    : mkvmerge v15.0.0 ('Duel with the Devil') 64-bit 2018-11-25 01:53:36 / mkvmerge v15.0.0 ('Duel with the Devil') 64-bit 2018-11-25 01:53:36 / UTC 2018-11-24T07:15:50Z
    FromStats_BitRate                        : 4349084
    FromStats_Duration                       : 01:28:43.944000000
    FromStats_FrameCount                     : 127647
    FromStats_StreamSize                     : 2894284983

    Audio #1
    ID                                       : 2
    Format                                   : DTS
    Format/Info                              : Digital Theater Systems
    Mode                                     : 16
    Format settings, Endianness              : Big
    Codec ID                                 : A_DTS
    Duration                                 : 1 h 28 min
    Bit rate mode                            : Constant
    Bit rate                                 : 768 kb/s
    Channel(s)                               : 6 channels
    Channel positions                        : Front: L C R, Side: L R, LFE
    Sampling rate                            : 48.0 kHz
    Frame rate                               : 93.750 FPS (512 SPF)
    Bit depth                                : 24 bits
    Compression mode                         : Lossy
    Stream size                              : 487 MiB (12%)
    Language                                 : Spanish
    Default                                  : Yes
    Forced                                   : No
    Statistics Tags Issue                    : mkvmerge v15.0.0 ('Duel with the Devil') 64-bit 2018-11-25 01:53:36 / mkvmerge v15.0.0 ('Duel with the Devil') 64-bit 2018-11-25 01:53:36 / UTC 2018-11-24T07:15:50Z
    FromStats_BitRate                        : 768000
    FromStats_Duration                       : 01:28:43.936000000
    FromStats_FrameCount                     : 499119
    FromStats_StreamSize                     : 511097856

    Audio #2
    ID                                       : 3
    Format                                   : DTS
    Format/Info                              : Digital Theater Systems
    Mode                                     : 16
    Format settings, Endianness              : Big
    Codec ID                                 : A_DTS
    Duration                                 : 1 h 28 min
    Bit rate mode                            : Constant
    Bit rate                                 : 1 509 kb/s
    Channel(s)                               : 6 channels
    Channel positions                        : Front: L C R, Side: L R, LFE
    Sampling rate                            : 48.0 kHz
    Frame rate                               : 93.750 FPS (512 SPF)
    Bit depth                                : 24 bits
    Compression mode                         : Lossy
    Stream size                              : 958 MiB (23%)
    Language                                 : English
    Default                                  : No
    Forced                                   : No
    Statistics Tags Issue                    : mkvmerge v15.0.0 ('Duel with the Devil') 64-bit 2018-11-25 01:53:36 / mkvmerge v15.0.0 ('Duel with the Devil') 64-bit 2018-11-25 01:53:36 / UTC 2018-11-24T07:15:50Z
    FromStats_BitRate                        : 1509000
    FromStats_Duration                       : 01:28:43.936000000
    FromStats_FrameCount                     : 499119
    FromStats_StreamSize                     : 1004227428

    Text #1
    ID                                       : 4
    Format                                   : PGS
    Muxing mode                              : zlib
    Codec ID                                 : S_HDMV/PGS
    Codec ID/Info                            : Picture based subtitle format used on BDs/HD-DVDs
    Language                                 : English
    Default                                  : No
    Forced                                   : No
    Statistics Tags Issue                    : mkvmerge v15.0.0 ('Duel with the Devil') 64-bit 2018-11-25 01:53:36 / mkvmerge v15.0.0 ('Duel with the Devil') 64-bit 2018-11-25 01:53:36 / UTC 2018-11-24T07:15:50Z
    FromStats_BitRate                        : 31277
    FromStats_Duration                       : 01:20:14.017000000
    FromStats_FrameCount                     : 1652
    FromStats_StreamSize                     : 18821185

    Text #2
    ID                                       : 5
    Format                                   : PGS
    Muxing mode                              : zlib
    Codec ID                                 : S_HDMV/PGS
    Codec ID/Info                            : Picture based subtitle format used on BDs/HD-DVDs
    Language                                 : Spanish
    Default                                  : No
    Forced                                   : No
    Statistics Tags Issue                    : mkvmerge v15.0.0 ('Duel with the Devil') 64-bit 2018-11-25 01:53:36 / mkvmerge v15.0.0 ('Duel with the Devil') 64-bit 2018-11-25 01:53:36 / UTC 2018-11-24T07:15:50Z
    FromStats_BitRate                        : 26855
    FromStats_Duration                       : 01:17:56.756000000
    FromStats_FrameCount                     : 1316
    FromStats_StreamSize                     : 15699725

    Text #3
    ID                                       : 6
    Format                                   : PGS
    Muxing mode                              : zlib
    Codec ID                                 : S_HDMV/PGS
    Codec ID/Info                            : Picture based subtitle format used on BDs/HD-DVDs
    Title                                    : Forzados
    Language                                 : Spanish
    Default                                  : Yes
    Forced                                   : Yes
    Statistics Tags Issue                    : mkvmerge v15.0.0 ('Duel with the Devil') 64-bit 2018-11-25 01:53:36 / mkvmerge v15.0.0 ('Duel with the Devil') 64-bit 2018-11-25 01:53:36 / UTC 2018-11-24T07:15:50Z
    FromStats_BitRate                        : 437
    FromStats_Duration                       : 00:22:25.427000000
    FromStats_FrameCount                     : 4
    FromStats_StreamSize                     : 73574

    Menu
    00:00:00.000                             : :Chapter 1
    00:03:29.334                             : :Chapter 2
    00:07:20.190                             : :Chapter 3
    00:09:39.621                             : :Chapter 4
    00:14:01.424                             : :Chapter 5
    00:18:14.760                             : :Chapter 6
    00:21:50.976                             : :Chapter 7
    00:26:11.153                             : :Chapter 8
    00:29:08.455                             : :Chapter 9
    00:32:57.517                             : :Chapter 10
    00:36:13.213                             : :Chapter 11
    00:41:41.124                             : :Chapter 12
    00:45:51.290                             : :Chapter 13
    00:50:57.680                             : :Chapter 14
    00:56:16.540                             : :Chapter 15
    01:00:49.020                             : :Chapter 16
    01:05:13.743                             : :Chapter 17
    01:10:25.930                             : :Chapter 18
    01:16:39.512                             : :Chapter 19
    01:21:39.520                             : :Chapter 20

     

  • Peso: 4.12 GiB

Sinopsis

Historia de una joven de 19 años (Odette Yustman) que sufre los ataques de un dybbuk, una alma en pena de una persona muerta que ha sido expulsada del cielo. Este dybbuk en particular tendrá la forma de un joven que falleció en el campo de concentración de Auschwitz. Junto a su novio (Cam Gigandet) y un especialista en temas paranormales (Gary Oldman), todos se unirán para acabar con la maldición que tan malos momentos trae a la joven

Ficha técnica

Video trailer de la película

Enlaces de descarga

Rip de Bluray

Descargar La profecía del no nacido (2009) Full 1080p Latino




Aportes de DPeliculasHDmega la pass es:dpeliculashdmega.org Aportes de CinemaniaHD la pass es:cinemaniahdd.com

Películas relacionadas

  • La casa con un reloj en sus paredes (2018) 1080p Latino

    2018
    La casa con un reloj en sus paredes (2018) 1080p Latino

    5.0 1h 45m 2018

    Descargar La casa con un reloj en sus paredes (2018) 1080p Latino, Mega, Google Drive, Torrent. La historia...

    Director: Eli Roth

    Género: Familia

    Actores: Vanessa Anne Williams

  • Godzilla (2014) Full 1080p Latino

    2014
    Godzilla (2014) Full 1080p Latino

    4.2 2h 3m 2014

    Descargar Godzilla (2014) Full 1080p Latino, Mega, Google Drive, Torrent. Gareth Edwards dirige este...

    Director: Jessica Clothier

    Género: Acción

    Actores: Yuki Morita

Comentarios 0