×

¿Problemas para descargar con Mozilla, EDGE? Deshabilita la opción "Abrir vinculos en una pestaña nueva" tal como lo muestra ésta imagen.

La princesa y el sapo (2009) HD 1080p Latino – CMHDD

382 vistas

Información de La princesa y el sapo (2009) HD 1080p Latino – CMHDD

Datos de la película

  • Calidad:
  • Audio: Español Latino AC3 5.1 BLURAY - Ingles AC3 5.1 BLURAY
  • Subtitulos: Español Latino SRT
  • Resolución: 1920x1080p
  • Formato: MKV
  • Codec: H.264
  • Encoder: Dracarys
  • Mediainfo: Clic para Mostrar Datos Ver
  • Format                      : Matroska
    Format version              : Version 4
    File size                   : 3.26 GiB
    Duration                    : 1 h 37 min
    Overall bit rate            : 4 790 kb/s
    Movie name                  : La princesa y el sapo (2009) HD 1080p Latino - CMHDD
    Encoded date                : UTC 2020-09-01 06:32:42
    Writing application         : mkvmerge v46.0.0 ('No Deeper Escape') 64-bit
    Writing library             : libebml v1.3.10 + libmatroska v1.5.2

    Video
    ID                          : 1
    Format                      : AVC
    Format/Info                 : Advanced Video Codec
    Format profile              : High@L4.1
    Format settings             : CABAC / 4 Ref Frames
    Format settings, CABAC      : Yes
    Format settings, Reference  : 4 frames
    Codec ID                    : V_MPEG4/ISO/AVC
    Duration                    : 1 h 37 min
    Bit rate                    : 3 500 kb/s
    Width                       : 1 920 pixels
    Height                      : 1 080 pixels
    Display aspect ratio        : 16:9
    Frame rate mode             : Constant
    Frame rate                  : 23.976 (24000/1001) FPS
    Color space                 : YUV
    Chroma subsampling          : 4:2:0
    Bit depth                   : 8 bits
    Scan type                   : Progressive
    Bits/(Pixel*Frame)          : 0.070
    Stream size                 : 2.38 GiB (73%)
    Writing library             : x264 core 157 r2935 545de2f
    Encoding settings           : cabac=1 / ref=4 / deblock=1:0:0 / analyse=0x3:0x113 / me=hex / subme=8 / psy=1 / psy_rd=1.00:0.00 / mixed_ref=1 / me_range=16 / chroma_me=1 / trellis=2 / 8x8dct=1 / cqm=0 / deadzone=21,11 / fast_pskip=1 / chroma_qp_offset=-2 / threads=24 / lookahead_threads=4 / sliced_threads=0 / nr=0 / decimate=1 / interlaced=0 / bluray_compat=0 / constrained_intra=0 / bframes=3 / b_pyramid=2 / b_adapt=1 / b_bias=0 / direct=3 / weightb=1 / open_gop=0 / weightp=2 / keyint=240 / keyint_min=24 / scenecut=40 / intra_refresh=0 / rc_lookahead=50 / rc=abr / mbtree=1 / bitrate=3500 / ratetol=1.0 / qcomp=0.60 / qpmin=0 / qpmax=69 / qpstep=4 / vbv_maxrate=62500 / vbv_bufsize=78125 / nal_hrd=none / filler=0 / ip_ratio=1.40 / aq=1:1.00
    Default                     : Yes
    Forced                      : No
    Color range                 : Limited
    Color primaries             : BT.709
    Transfer characteristics    : BT.709
    Matrix coefficients         : BT.709

    Audio #1
    ID                          : 2
    Format                      : AC-3
    Format/Info                 : Audio Coding 3
    Commercial name             : Dolby Digital
    Codec ID                    : A_AC3
    Duration                    : 1 h 37 min
    Bit rate mode               : Constant
    Bit rate                    : 640 kb/s
    Channel(s)                  : 6 channels
    Channel layout              : L R C LFE Ls Rs
    Sampling rate               : 48.0 kHz
    Frame rate                  : 31.250 FPS (1536 SPF)
    Compression mode            : Lossy
    Delay relative to video     : -5 ms
    Stream size                 : 446 MiB (13%)
    Language                    : Spanish
    Service kind                : Complete Main
    Default                     : Yes
    Forced                      : No

    Audio #2
    ID                          : 3
    Format                      : AC-3
    Format/Info                 : Audio Coding 3
    Commercial name             : Dolby Digital
    Codec ID                    : A_AC3
    Duration                    : 1 h 37 min
    Bit rate mode               : Constant
    Bit rate                    : 640 kb/s
    Channel(s)                  : 6 channels
    Channel layout              : L R C LFE Ls Rs
    Sampling rate               : 48.0 kHz
    Frame rate                  : 31.250 FPS (1536 SPF)
    Compression mode            : Lossy
    Delay relative to video     : -5 ms
    Stream size                 : 446 MiB (13%)
    Language                    : English
    Service kind                : Complete Main
    Default                     : No
    Forced                      : No

    Text #1
    ID                          : 4
    Format                      : UTF-8
    Codec ID                    : S_TEXT/UTF8
    Codec ID/Info               : UTF-8 Plain Text
    Duration                    : 1 h 29 min
    Bit rate                    : 67 b/s
    Count of elements           : 1318
    Stream size                 : 44.3 KiB (0%)
    Language                    : Spanish
    Default                     : No
    Forced                      : No

    Text #2
    ID                          : 5
    Format                      : PGS
    Muxing mode                 : zlib
    Codec ID                    : S_HDMV/PGS
    Codec ID/Info               : Picture based subtitle format used on BDs/HD-DVDs
    Duration                    : 1 h 29 min
    Bit rate                    : 40.4 kb/s
    Count of elements           : 2636
    Stream size                 : 25.8 MiB (1%)
    Language                    : Spanish
    Default                     : No
    Forced                      : No

    Menu
    00:00:00.000                : :Chapter 1
    00:03:57.779                : :Chapter 2
    00:07:16.478                : :Chapter 3
    00:12:05.433                : :Chapter 4
    00:17:45.523                : :Chapter 5
    00:22:04.782                : :Chapter 6
    00:26:47.272                : :Chapter 7
    00:31:22.130                : :Chapter 8
    00:35:49.189                : :Chapter 9
    00:41:11.302                : :Chapter 10
    00:44:30.668                : :Chapter 11
    00:50:37.993                : :Chapter 12
    00:54:53.081                : :Chapter 13
    01:00:08.897                : :Chapter 14
    01:07:21.621                : :Chapter 15
    01:13:34.660                : :Chapter 16
    01:21:50.823                : :Chapter 17
    01:24:23.892                : :Chapter 18
    01:27:06.763                : :Chapter 19
    01:30:28.298                : :Chapter 20
     

  • Peso: 3.26 GiB

Sinopsis

Tiana, una muchacha de origen humilde que vive en Nueva Orleans, trabaja como camarera y cocinera para conseguir realizar el sueño que compartio con su padre, conseguir abrir su propio restaurante.Pero todo cambia cuando el Príncipe Naveen, heredero de la corona de Maldonia, llega a la ciudad. En su camino se cruza el Doctor Facilier, un brujo vudú que engaña al príncipe y lo convierte en una rana. Atrapado en su nueva forma, Naveen intentará romper el encantamiento utilizando la forma clásica de los cuentos, es decir, con el beso de una princesa. Convence a Tiana para que le bese pero, las cosas no son tan sencillas.

Ficha técnica

Video trailer de la película

Enlaces de descarga

Rip de Bluray

Descargar La princesa y el sapo (2009) HD 1080p Latino – CMHDD




Aportes de DPeliculasHDmega la pass es:dpeliculashdmega.org Aportes de CinemaniaHD la pass es:cinemaniahdd.com
Guardado en : Animación , Familia , HD 1080p , Romance

Películas relacionadas

descargar La princesa y el sapo (2009) HD 1080p Latino – CMHDD 1080p gratis, La princesa y el sapo (2009) HD 1080p Latino – CMHDD mega 1 link, La princesa y el sapo (2009) HD 1080p Latino – CMHDD pelicula completa, descargar La princesa y el sapo (2009) HD 1080p Latino – CMHDD gratis en mega.

La princesa y el sapo (2009) HD 1080p Latino – CMHDD pelicula full hd, La princesa y el sapo (2009) HD 1080p Latino – CMHDD mega latino, La princesa y el sapo (2009) HD 1080p Latino – CMHDD 4k latino, La princesa y el sapo (2009) HD 1080p Latino – CMHDD pelicula completa, La princesa y el sapo (2009) HD 1080p Latino – CMHDD descargar gratis, descargar La princesa y el sapo (2009) HD 1080p Latino – CMHDD pelicula latino, La princesa y el sapo (2009) HD 1080p Latino – CMHDD 1 link mega, La princesa y el sapo (2009) HD 1080p Latino – CMHDD 1 link google drive, La princesa y el sapo (2009) HD 1080p Latino – CMHDD hd 1080p latino.
Comentarios 0