La princesa y el sapo (2009) Full 1080p Latino

2.292 vistas
1 estrella2 estrellas3 estrellas4 estrellas5 estrellas (4 votos, promedio: 5,00 de 5)
Cargando…

Información de La princesa y el sapo (2009) Full 1080p Latino

Datos de la película

  • Calidad: Full 1080p
  • Audio: Español Latino AC3 5.1 BLURAY - Ingles DTS 5.1 BLURAY
  • Subtitulos: Español Latino PGS - Ingles PGS
  • Resolución: 1920x1080p
  • Formato: MKV
  • Codec: H.264
  • Encoder: Dracarys
  • Mediainfo: Clic para Mostrar Datos Ver
  • Format                                   : Matroska
    Format version                           : Version 4 / Version 2
    File size                                : 3.51 GiB
    Duration                                 : 1 h 37 min
    Overall bit rate                         : 5 151 kb/s
    Movie name                               : CinemaniaHDD.net
    Encoded date                             : UTC 2018-08-03 04:11:16 / UTC 2018-07-30T05:16:00Z
    Writing application                      : mkvmerge v15.0.0 ('Duel with the Devil') 64-bit
    Writing library                          : libebml v1.3.5 + libmatroska v1.4.5 / Lavf57.7.2

    Video
    ID                                       : 1
    Format                                   : AVC
    Format/Info                              : Advanced Video Codec
    Format profile                           : [email protected]
    Format settings                          : CABAC / 4 Ref Frames
    Format settings, CABAC                   : Yes
    Format settings, RefFrames               : 4 frames
    Codec ID                                 : V_MPEG4/ISO/AVC
    Duration                                 : 1 h 37 min
    Bit rate                                 : 2 899 kb/s
    Width                                    : 1 920 pixels
    Height                                   : 1 080 pixels
    Display aspect ratio                     : 16:9
    Frame rate mode                          : Constant
    Frame rate                               : 23.976 (24000/1001) FPS
    Color space                              : YUV
    Chroma subsampling                       : 4:2:0
    Bit depth                                : 8 bits
    Scan type                                : Progressive
    Bits/(Pixel*Frame)                       : 0.058
    Stream size                              : 1.97 GiB (56%)
    Title                                    : La princesa y el sapo (2009) Full 1080p Latino
    Writing library                          : x264 core 148 r2708 86b7198
    Encoding settings                        : cabac=1 / ref=4 / deblock=1:0:0 / analyse=0x3:0x133 / me=esa / subme=10 / psy=1 / psy_rd=1.00:0.00 / mixed_ref=1 / me_range=24 / chroma_me=1 / trellis=2 / 8x8dct=1 / cqm=0 / deadzone=21,11 / fast_pskip=1 / chroma_qp_offset=-2 / threads=34 / lookahead_threads=5 / sliced_threads=0 / nr=0 / decimate=1 / interlaced=0 / bluray_compat=0 / constrained_intra=0 / bframes=8 / b_pyramid=2 / b_adapt=2 / b_bias=0 / direct=3 / weightb=1 / open_gop=0 / weightp=2 / keyint=240 / keyint_min=24 / scenecut=40 / intra_refresh=0 / rc_lookahead=60 / rc=crf / mbtree=1 / crf=20.0 / qcomp=0.60 / qpmin=0 / qpmax=69 / qpstep=4 / vbv_maxrate=62500 / vbv_bufsize=78125 / crf_max=0.0 / nal_hrd=none / filler=0 / ip_ratio=1.40 / aq=1:1.00
    Language                                 : English
    Default                                  : Yes
    Forced                                   : No
    Color range                              : Limited
    Color primaries                          : BT.709
    Transfer characteristics                 : BT.709
    Matrix coefficients                      : BT.709
    Statistics Tags Issue                    : mkvmerge v15.0.0 ('Duel with the Devil') 64-bit 2018-08-03 04:11:16 / mkvmerge v15.0.0 ('Duel with the Devil') 64-bit 2018-08-03 04:11:16 / UTC 2018-07-30T05:16:00Z
    FromStats_BitRate                        : 2947863
    FromStats_Duration                       : 01:37:27.801000000
    FromStats_FrameCount                     : 140207
    FromStats_StreamSize                     : 2154814671

    Audio #1
    ID                                       : 2
    Format                                   : AC-3
    Format/Info                              : Audio Coding 3
    Format settings, Endianness              : Big
    Codec ID                                 : A_AC3
    Duration                                 : 1 h 37 min
    Bit rate mode                            : Constant
    Bit rate                                 : 640 kb/s
    Channel(s)                               : 6 channels
    Channel positions                        : Front: L C R, Side: L R, LFE
    Sampling rate                            : 48.0 kHz
    Frame rate                               : 31.250 FPS (1536 SPF)
    Bit depth                                : 16 bits
    Compression mode                         : Lossy
    Stream size                              : 446 MiB (12%)
    Language                                 : Spanish
    Service kind                             : Complete Main
    Default                                  : Yes
    Forced                                   : No
    Statistics Tags Issue                    : mkvmerge v15.0.0 ('Duel with the Devil') 64-bit 2018-08-03 04:11:16 / mkvmerge v15.0.0 ('Duel with the Devil') 64-bit 2018-08-03 04:11:16 / UTC 2018-07-30T05:16:00Z
    FromStats_BitRate                        : 640000
    FromStats_Duration                       : 01:37:27.872000000
    FromStats_FrameCount                     : 182746
    FromStats_StreamSize                     : 467829760

    Audio #2
    ID                                       : 3
    Format                                   : DTS
    Format/Info                              : Digital Theater Systems
    Mode                                     : 16
    Format settings, Endianness              : Big
    Codec ID                                 : A_DTS
    Duration                                 : 1 h 37 min
    Bit rate mode                            : Constant
    Bit rate                                 : 1 509 kb/s
    Channel(s)                               : 6 channels
    Channel positions                        : Front: L C R, Side: L R, LFE
    Sampling rate                            : 48.0 kHz
    Frame rate                               : 93.750 FPS (512 SPF)
    Bit depth                                : 24 bits
    Compression mode                         : Lossy
    Stream size                              : 1.03 GiB (29%)
    Language                                 : English
    Default                                  : No
    Forced                                   : No
    Statistics Tags Issue                    : mkvmerge v15.0.0 ('Duel with the Devil') 64-bit 2018-08-03 04:11:16 / mkvmerge v15.0.0 ('Duel with the Devil') 64-bit 2018-08-03 04:11:16 / UTC 2018-07-30T05:16:00Z
    FromStats_BitRate                        : 1508999
    FromStats_Duration                       : 01:37:27.798000000
    FromStats_FrameCount                     : 548231
    FromStats_StreamSize                     : 1103040772

    Text #1
    ID                                       : 4
    Format                                   : PGS
    Muxing mode                              : zlib
    Codec ID                                 : S_HDMV/PGS
    Codec ID/Info                            : Picture based subtitle format used on BDs/HD-DVDs
    Language                                 : English
    Default                                  : No
    Forced                                   : No
    Statistics Tags Issue                    : mkvmerge v15.0.0 ('Duel with the Devil') 64-bit 2018-08-03 04:11:16 / mkvmerge v15.0.0 ('Duel with the Devil') 64-bit 2018-08-03 04:11:16 / UTC 2018-07-30T05:16:00Z
    FromStats_BitRate                        : 51080
    FromStats_Duration                       : 01:33:06.155000000
    FromStats_FrameCount                     : 3332
    FromStats_StreamSize                     : 35668060

    Text #2
    ID                                       : 5
    Format                                   : PGS
    Muxing mode                              : zlib
    Codec ID                                 : S_HDMV/PGS
    Codec ID/Info                            : Picture based subtitle format used on BDs/HD-DVDs
    Language                                 : Spanish
    Default                                  : No
    Forced                                   : No
    Statistics Tags Issue                    : mkvmerge v15.0.0 ('Duel with the Devil') 64-bit 2018-08-03 04:11:16 / mkvmerge v15.0.0 ('Duel with the Devil') 64-bit 2018-08-03 04:11:16 / UTC 2018-07-30T05:16:00Z
    FromStats_BitRate                        : 40374
    FromStats_Duration                       : 01:29:36.028000000
    FromStats_FrameCount                     : 2638
    FromStats_StreamSize                     : 27131572

    Text #3
    ID                                       : 6
    Format                                   : PGS
    Muxing mode                              : zlib
    Codec ID                                 : S_HDMV/PGS
    Codec ID/Info                            : Picture based subtitle format used on BDs/HD-DVDs
    Title                                    : Forzados
    Language                                 : Spanish
    Default                                  : Yes
    Forced                                   : Yes
    Statistics Tags Issue                    : mkvmerge v15.0.0 ('Duel with the Devil') 64-bit 2018-08-03 04:11:16 / mkvmerge v15.0.0 ('Duel with the Devil') 64-bit 2018-08-03 04:11:16 / UTC 2018-07-30T05:16:00Z
    FromStats_BitRate                        : 84181
    FromStats_Duration                       : 01:37:21.117000000
    FromStats_FrameCount                     : 4299
    FromStats_StreamSize                     : 61464283

    Menu
    00:00:00.000                             : :Chapter 1
    00:03:57.779                             : :Chapter 2
    00:07:16.478                             : :Chapter 3
    00:12:05.433                             : :Chapter 4
    00:17:45.565                             : :Chapter 5
    00:22:04.782                             : :Chapter 6
    00:26:47.272                             : :Chapter 7
    00:31:22.172                             : :Chapter 8
    00:35:49.230                             : :Chapter 9
    00:41:11.344                             : :Chapter 10
    00:44:30.710                             : :Chapter 11
    00:50:38.035                             : :Chapter 12
    00:54:53.123                             : :Chapter 13
    01:00:08.939                             : :Chapter 14
    01:07:21.663                             : :Chapter 15
    01:13:34.702                             : :Chapter 16
    01:21:50.864                             : :Chapter 17
    01:24:23.934                             : :Chapter 18
    01:27:06.805                             : :Chapter 19
    01:30:28.340                             : :Chapter 20

  • Peso: 3.51 GiB

Sinopsis

Tiana, una muchacha de origen humilde que vive en Nueva Orleans, trabaja como camarera y cocinera para conseguir realizar el sueño que compartio con su padre, conseguir abrir su propio restaurante.Pero todo cambia cuando el Príncipe Naveen, heredero de la corona de Maldonia, llega a la ciudad. En su camino se cruza el Doctor Facilier, un brujo vudú que engaña al príncipe y lo convierte en una rana. Atrapado en su nueva forma, Naveen intentará romper el encantamiento utilizando la forma clásica de los cuentos, es decir, con el beso de una princesa. Convence a Tiana para que le bese pero, las cosas no son tan sencillas.

Ficha técnica

Video trailer de la película

Enlaces de descarga

Rip de Bluray

Descargar La princesa y el sapo (2009) Full 1080p Latino




Aportes de DPeliculasHDmega la pass es:dpeliculashdmega.org Aportes de CinemaniaHD la pass es:cinemaniahdd.com

Películas relacionadas

  • The Dirt (2019) NF WEB-DL 1080p Latino

    2019
    The Dirt (2019) NF WEB-DL 1080p Latino

    0.0 0h 0m 2019

    Basada en la autobiografía publicada por el grupo Mötley Crüe en 2001, esta obra refleja la historia...

    Director: Jeff Tremaine

    Género: Drama

    Actores: Vince Mattis

  • Terremoto (2018) Full 1080p Subtitulado

    2018
    Terremoto (2018) Full 1080p Subtitulado

    3.7 1h 46m 2018

    En 1904, un terremoto de magnitud 5,4 sacudió Oslo con el epicentro en “Oslo Graben” bajo la capital...

    Director: John Andreas Andersen

    Género: Aventura

    Actores: Tina Schei

  • WiFi Ralph (2018) 4K UHD HDR Latino

    2018
    WiFi Ralph (2018) 4K UHD HDR Latino

    5.0 1h 52m 2018

    Descargar WiFi Ralph (2018) 4K UHD HDR Latino, Mega, Google Drive. Ralph sale de los recreativos y......

    Director: Rich Moore

    Género: 4K HDR

    Actores: Wayne Sermon

Comentarios 0