×

¿Problemas para descargar con Mozilla, EDGE? Deshabilita la opción "Abrir vinculos en una pestaña nueva" tal como lo muestra ésta imagen.

La Princesa de la Yakuza (2021) HD 1080p Latino

580 vistas

Información de La Princesa de la Yakuza (2021) HD 1080p Latino

Datos de la película

  • Calidad: 1080p
  • Audio: Español Latino AC3 5.1 WEB-DL - Ingles AC3 5.1 BLURAY
  • Subtitulos: Español Latino SRT- FORZADOS SRT
  • Resolución: 1920x804p
  • Formato: MKV
  • Codec: H.264
  • Encoder: Melkor
  • Mediainfo: Clic para Mostrar Datos Ver
  • La Princesa De La Yakuza (2021) HD 1080p Latino.mkv
    Format                      : Matroska
    Format version              : Version 4
    File size                   : 3.57 GiB
    Duration                    : 1 h 51 min
    Overall bit rate            : 4 590 kb/s
    Movie name                  : Yakuza Princess (2021) CinemaniaHDD.Net
    Encoded date                : UTC 2022-04-21 04:51:52
    Writing application         : mkvmerge v56.1.0 ('My Friend') 64-bit
    Writing library             : libebml v1.4.2 + libmatroska v1.6.4
    Attachments                 : CINEMANIAHD.png

    Video
    ID                          : 1
    Format                      : AVC
    Format/Info                 : Advanced Video Codec
    Format profile              : High@L4.1
    Format settings             : CABAC / 5 Ref Frames
    Format settings, CABAC      : Yes
    Format settings, Reference  : 5 frames
    Codec ID                    : V_MPEG4/ISO/AVC
    Duration                    : 1 h 51 min
    Bit rate                    : 3 500 kb/s
    Width                       : 1 920 pixels
    Height                      : 804 pixels
    Display aspect ratio        : 2.40:1
    Frame rate mode             : Constant
    Frame rate                  : 23.976 (24000/1001) FPS
    Color space                 : YUV
    Chroma subsampling          : 4:2:0
    Bit depth                   : 8 bits
    Scan type                   : Progressive
    Bits/(Pixel*Frame)          : 0.095
    Stream size                 : 2.72 GiB (76%)
    Title                       : HD1080p [CinemaniaHDD]
    Writing library             : x264 core 163 r3059 b684ebe0
    Encoding settings           : cabac=1 / ref=5 / deblock=1:-1:-1 / analyse=0x3:0x133 / me=umh / subme=9 / psy=1 / psy_rd=1.00:0.15 / mixed_ref=1 / me_range=16 / chroma_me=1 / trellis=2 / 8x8dct=1 / cqm=0 / deadzone=21,11 / fast_pskip=1 / chroma_qp_offset=-3 / threads=24 / lookahead_threads=2 / sliced_threads=0 / nr=0 / decimate=1 / interlaced=0 / bluray_compat=0 / constrained_intra=0 / bframes=3 / b_pyramid=2 / b_adapt=2 / b_bias=0 / direct=3 / weightb=1 / open_gop=0 / weightp=2 / keyint=240 / keyint_min=24 / scenecut=40 / intra_refresh=0 / rc_lookahead=60 / rc=2pass / mbtree=1 / bitrate=3500 / ratetol=1.0 / qcomp=0.60 / qpmin=0 / qpmax=69 / qpstep=4 / cplxblur=20.0 / qblur=0.5 / vbv_maxrate=62500 / vbv_bufsize=78125 / nal_hrd=none / filler=0 / ip_ratio=1.40 / aq=1:1.00
    Default                     : Yes
    Forced                      : Yes
    Color range                 : Limited
    Color primaries             : BT.709
    Transfer characteristics    : BT.709
    Matrix coefficients         : BT.709

    Audio #1
    ID                          : 2
    Format                      : AC-3
    Format/Info                 : Audio Coding 3
    Commercial name             : Dolby Digital
    Codec ID                    : A_AC3
    Duration                    : 1 h 51 min
    Bit rate mode               : Constant
    Bit rate                    : 640 kb/s
    Channel(s)                  : 6 channels
    Channel layout              : L R C LFE Ls Rs
    Sampling rate               : 48.0 kHz
    Frame rate                  : 31.250 FPS (1536 SPF)
    Compression mode            : Lossy
    Delay relative to video     : -5 ms
    Stream size                 : 509 MiB (14%)
    Title                       : Español Latino [CinemaniaHDD]
    Language                    : Spanish
    Service kind                : Complete Main
    Default                     : Yes
    Forced                      : Yes

    Audio #2
    ID                          : 3
    Format                      : AC-3
    Format/Info                 : Audio Coding 3
    Commercial name             : Dolby Digital
    Codec ID                    : A_AC3
    Duration                    : 1 h 51 min
    Bit rate mode               : Constant
    Bit rate                    : 448 kb/s
    Channel(s)                  : 6 channels
    Channel layout              : L R C LFE Ls Rs
    Sampling rate               : 48.0 kHz
    Frame rate                  : 31.250 FPS (1536 SPF)
    Compression mode            : Lossy
    Delay relative to video     : -5 ms
    Stream size                 : 356 MiB (10%)
    Title                       : Ingles [CinemaniaHDD]
    Language                    : English
    Service kind                : Complete Main
    Default                     : No
    Forced                      : No

    Text #1
    ID                          : 4
    Format                      : UTF-8
    Codec ID                    : S_TEXT/UTF8
    Codec ID/Info               : UTF-8 Plain Text
    Duration                    : 1 h 50 min
    Bit rate                    : 1 b/s
    Count of elements           : 46
    Stream size                 : 1.10 KiB (0%)
    Title                       : Forzados-SRT [CinemaniaHDD]
    Language                    : Spanish
    Default                     : Yes
    Forced                      : Yes

    Text #2
    ID                          : 5
    Format                      : UTF-8
    Codec ID                    : S_TEXT/UTF8
    Codec ID/Info               : UTF-8 Plain Text
    Duration                    : 1 h 50 min
    Bit rate                    : 18 b/s
    Count of elements           : 589
    Stream size                 : 14.8 KiB (0%)
    Title                       : Español-SRT [CinemaniaHDD]
    Language                    : Spanish
    Default                     : No
    Forced                      : No

    Menu
    00:00:00.000                : Chapter 01
    00:07:52.263                : Chapter 02
    00:13:39.819                : Chapter 03
    00:20:18.217                : Chapter 04
    00:30:24.823                : Chapter 05
    00:39:51.389                : Chapter 06
    00:45:36.734                : Chapter 07
    00:53:15.192                : Chapter 08
    01:02:26.743                : Chapter 09
    01:12:37.353                : Chapter 10
    01:19:56.792                : Chapter 11
    01:27:04.219                : Chapter 12
    01:34:23.658                : Chapter 13
    01:43:29.661                : Chapter 14

  • Peso: 3.57 GiB

Sinopsis

Descargar La Princesa de la Yakuza (2021) HD 1080p Latino. En Brasil, Akemi descubre que es la heredera del imperio Yakuza. Justo después de eso, su destino entra en una espiral de violencia y misterio, donde un gaijin (extranjero) que la ha estado protegiendo todo este tiempo, Shiro, puede haber sido enviado para matarla.

Ficha técnica

Video trailer de la película

Enlaces de descarga

Rip de Bluray

Descargar La Princesa de la Yakuza (2021) HD 1080p Latino




Aportes de DPeliculasHDmega la pass es:dpeliculashdmega.org Aportes de CinemaniaHD la pass es:cinemaniahdd.com
Guardado en : Acción , HD 1080p , Suspenso

Películas relacionadas

  • El discurso del Rey (2010) 1080p Latino

    El discurso del Rey (2010) 1080p Latino

    2010
    El discurso del Rey (2010) 1080p Latino

    1h 58m 2010

    Descargar El discurso del Rey (2010) 1080p Latino. El duque de York se convirtió en rey de Gran Bretaña...

    Director: Tom Hooper

    Género: Drama

    Actores: Tony Earnshaw

  • Lucy (2014) REMUX 4K HDR Latino – CMHDD

    Lucy (2014) REMUX 4K HDR Latino – CMHDD

    2014
    Lucy (2014) REMUX 4K HDR Latino – CMHDD

    1h 30m 2014

    Lucy, una joven obligada a ejercer de mula de una nueva y potente droga, adquiere de repente enormes...

    Director: Luc Besson

    Género: Acción

    Actores: Wolfgang Pissors

descargar La Princesa de la Yakuza (2021) HD 1080p Latino 1080p 1080p gratis, La Princesa de la Yakuza (2021) HD 1080p Latino 1080p mega 1 link, La Princesa de la Yakuza (2021) HD 1080p Latino 1080p pelicula completa, descargar La Princesa de la Yakuza (2021) HD 1080p Latino 1080p gratis en mega.

La Princesa de la Yakuza (2021) HD 1080p Latino pelicula full hd, La Princesa de la Yakuza (2021) HD 1080p Latino mega latino, La Princesa de la Yakuza (2021) HD 1080p Latino 4k latino, La Princesa de la Yakuza (2021) HD 1080p Latino pelicula completa, La Princesa de la Yakuza (2021) HD 1080p Latino descargar gratis, descargar La Princesa de la Yakuza (2021) HD 1080p Latino pelicula latino, La Princesa de la Yakuza (2021) HD 1080p Latino 1 link mega, La Princesa de la Yakuza (2021) HD 1080p Latino 1 link google drive, La Princesa de la Yakuza (2021) HD 1080p Latino hd 1080p latino.
Comentarios 0