×

¿Problemas para descargar con Mozilla, EDGE? Deshabilita la opción "Abrir vinculos en una pestaña nueva" tal como lo muestra ésta imagen.

La princesa (2022) D+ WEB-DL 4K UHD HDR Latino

490 vistas

Información de La princesa (2022) D+ WEB-DL 4K UHD HDR Latino

Datos de la película

  • Calidad: WEBDL
  • Audio: Se especifica abajo de la Sinopsis
  • Subtitulos: Español Latino SRT- FORZADOS SRT
  • Resolución: 3840x2160p
  • Formato: MKV
  • Codec: HEVC
  • Encoder: Melkor
  • Mediainfo: Clic para Mostrar Datos Ver
  • La Princesa (2022) D+ WEB UHD HDR Latino.mkv
    Format                      : Matroska
    Format version              : Version 4
    File size                   : 11.0 GiB
    Duration                    : 1 h 33 min
    Overall bit rate            : 16.8 Mb/s
    Movie name                  : The Princess (2022) CinemaniaHDD.Net
    Encoded date                : UTC 2022-07-16 05:28:53
    Writing application         : mkvmerge v56.1.0 ('My Friend') 64-bit
    Writing library             : libebml v1.4.2 + libmatroska v1.6.4
    Attachments                 : CINEMANIAHD.png

    Video
    ID                          : 1
    Format                      : HEVC
    Format/Info                 : High Efficiency Video Coding
    Format profile              : Main 10@L5@High
    HDR format                  : SMPTE ST 2086, HDR10 compatible
    Codec ID                    : V_MPEGH/ISO/HEVC
    Duration                    : 1 h 33 min
    Bit rate                    : 15.8 Mb/s
    Width                       : 3 840 pixels
    Height                      : 2 160 pixels
    Display aspect ratio        : 16:9
    Frame rate mode             : Constant
    Frame rate                  : 24.000 FPS
    Color space                 : YUV
    Chroma subsampling          : 4:2:0
    Bit depth                   : 10 bits
    Bits/(Pixel*Frame)          : 0.079
    Stream size                 : 10.4 GiB (94%)
    Title                       : Web 2160p HDR [CinemaniaHDD]
    Language                    : English
    Default                     : Yes
    Forced                      : No
    Color range                 : Limited
    Color primaries             : BT.2020
    Transfer characteristics    : PQ
    Matrix coefficients         : BT.2020 non-constant
    Mastering display color pri : Display P3
    Mastering display luminance : min: 0.0001 cd/m2, max: 1000 cd/m2

    Audio #1
    ID                          : 2
    Format                      : AC-3
    Format/Info                 : Audio Coding 3
    Commercial name             : Dolby Digital
    Codec ID                    : A_AC3
    Duration                    : 1 h 33 min
    Bit rate mode               : Constant
    Bit rate                    : 448 kb/s
    Channel(s)                  : 6 channels
    Channel layout              : L R C LFE Ls Rs
    Sampling rate               : 48.0 kHz
    Frame rate                  : 31.250 FPS (1536 SPF)
    Compression mode            : Lossy
    Stream size                 : 301 MiB (3%)
    Title                       : Español Latino AC3 [CinemaniaHDD]
    Language                    : Spanish
    Service kind                : Complete Main
    Default                     : Yes
    Forced                      : Yes

    Audio #2
    ID                          : 3
    Format                      : E-AC-3
    Format/Info                 : Enhanced AC-3
    Commercial name             : Dolby Digital Plus
    Codec ID                    : A_EAC3
    Duration                    : 1 h 33 min
    Bit rate mode               : Constant
    Bit rate                    : 256 kb/s
    Channel(s)                  : 6 channels
    Channel layout              : L R C LFE Ls Rs
    Sampling rate               : 48.0 kHz
    Frame rate                  : 31.250 FPS (1536 SPF)
    Compression mode            : Lossy
    Stream size                 : 172 MiB (2%)
    Title                       : Español Latino EAC3 [CinemaniaHDD]
    Language                    : Spanish
    Service kind                : Complete Main
    Default                     : No
    Forced                      : No

    Audio #3
    ID                          : 4
    Format                      : E-AC-3
    Format/Info                 : Enhanced AC-3
    Commercial name             : Dolby Digital Plus
    Codec ID                    : A_EAC3
    Duration                    : 1 h 33 min
    Bit rate mode               : Constant
    Bit rate                    : 256 kb/s
    Channel(s)                  : 6 channels
    Channel layout              : L R C LFE Ls Rs
    Sampling rate               : 48.0 kHz
    Frame rate                  : 31.250 FPS (1536 SPF)
    Compression mode            : Lossy
    Stream size                 : 172 MiB (2%)
    Title                       : Ingles [CinemaniaHDD]
    Language                    : English
    Service kind                : Complete Main
    Default                     : No
    Forced                      : No

    Text #1
    ID                          : 5
    Format                      : UTF-8
    Codec ID                    : S_TEXT/UTF8
    Codec ID/Info               : UTF-8 Plain Text
    Duration                    : 1 h 32 min
    Bit rate                    : 0 b/s
    Count of elements           : 2
    Stream size                 : 35.0 Bytes (0%)
    Title                       : Forzados-SRT [CinemaniaHDD]
    Language                    : Spanish
    Default                     : Yes
    Forced                      : Yes

    Text #2
    ID                          : 6
    Format                      : UTF-8
    Codec ID                    : S_TEXT/UTF8
    Codec ID/Info               : UTF-8 Plain Text
    Duration                    : 1 h 32 min
    Bit rate                    : 23 b/s
    Count of elements           : 633
    Stream size                 : 16.3 KiB (0%)
    Title                       : Español-SRT [CinemaniaHDD]
    Language                    : Spanish
    Default                     : No
    Forced                      : No

    Text #3
    ID                          : 7
    Format                      : UTF-8
    Codec ID                    : S_TEXT/UTF8
    Codec ID/Info               : UTF-8 Plain Text
    Duration                    : 1 h 25 min
    Bit rate                    : 35 b/s
    Count of elements           : 878
    Stream size                 : 22.4 KiB (0%)
    Title                       : Ingles-SRT [CinemaniaHDD]
    Language                    : English
    Default                     : No
    Forced                      : No

  • Peso: 11.0 GiB

Sinopsis

Descargar La princesa (2022) D+ WEB-DL 4K UHD HDR Latino. Cuando una princesa se niega a casarse con un sociópata cruel, es secuestrada y encerrada en una torre del castillo de su padre. Con su vengativo pretendiente decidido a tomar el trono de su padre, la princesa debe salvar el reino.

Español  Latino EAC3 & AC3 5.1 D+ – Ingles EAC3 5.1 D+

Ficha técnica

Video trailer de la película

Enlaces de descarga

Rip de Bluray

Descargar La princesa (2022) D+ WEB-DL 4K UHD HDR Latino




Aportes de DPeliculasHDmega la pass es:dpeliculashdmega.org Aportes de CinemaniaHD la pass es:cinemaniahdd.com
Guardado en : 4K HDR , 4K UHD , Acción , Fantasía

Películas relacionadas

  • Herencia peligrosa (2022) HD 1080p Latino

    Herencia peligrosa (2022) HD 1080p Latino

    2022
    Herencia peligrosa (2022) HD 1080p Latino

    1h 34m 2022

    Descargar Herencia peligrosa (2022) HD 1080p Latino. Tres ladrones se hacen con el yate de lujo de una...

    Director: Declan Whitebloom

    Género: Acción

    Actores: Vernon Davis

  • Herencia peligrosa (2022) REMUX 1080p Latino

    Herencia peligrosa (2022) REMUX 1080p Latino

    2022
    Herencia peligrosa (2022) REMUX 1080p Latino

    1h 34m 2022

    Descargar Herencia peligrosa (2022) REMUX 1080p Latino. Tres ladrones se hacen con el yate de lujo de...

    Director: Declan Whitebloom

    Género: Acción

    Actores: Vernon Davis

  • La Mujer Rey (2022) WEB-DL 1080p Latino

    La Mujer Rey (2022) WEB-DL 1080p Latino

    2022
    La Mujer Rey (2022) WEB-DL 1080p Latino

    2h 15m 2022

    Descargar La Mujer Rey (2022) WEB-DL 1080p Latino. Una epopeya histórica inspirada en los hechos reales...

    Director: Gina Prince-Bythewood

    Género: Acción

    Actores: Wanda Banda

descargar La princesa (2022) D+ WEB-DL 4K UHD HDR Latino WEBDL 1080p gratis, La princesa (2022) D+ WEB-DL 4K UHD HDR Latino WEBDL mega 1 link, La princesa (2022) D+ WEB-DL 4K UHD HDR Latino WEBDL pelicula completa, descargar La princesa (2022) D+ WEB-DL 4K UHD HDR Latino WEBDL gratis en mega.

La princesa (2022) D+ WEB-DL 4K UHD HDR Latino pelicula full hd, La princesa (2022) D+ WEB-DL 4K UHD HDR Latino mega latino, La princesa (2022) D+ WEB-DL 4K UHD HDR Latino 4k latino, La princesa (2022) D+ WEB-DL 4K UHD HDR Latino pelicula completa, La princesa (2022) D+ WEB-DL 4K UHD HDR Latino descargar gratis, descargar La princesa (2022) D+ WEB-DL 4K UHD HDR Latino pelicula latino, La princesa (2022) D+ WEB-DL 4K UHD HDR Latino 1 link mega, La princesa (2022) D+ WEB-DL 4K UHD HDR Latino 1 link google drive, La princesa (2022) D+ WEB-DL 4K UHD HDR Latino hd 1080p latino.
Comentarios 0