×

¿Problemas para descargar con Mozilla, EDGE? Deshabilita la opción "Abrir vinculos en una pestaña nueva" tal como lo muestra ésta imagen.

La playa (2000) [Open Matte] WEB-DL [AMZN] 1080p Latino – CMHDD

409 vistas

Información de La playa (2000) [Open Matte] WEB-DL [AMZN] 1080p Latino – CMHDD

Datos de la película

  • Calidad: WEBDL
  • Audio: Se especifica abajo de la Sinopsis
  • Subtitulos: Español Latino SRT
  • Resolución: 1920x1080p
  • Formato: MKV
  • Codec: H.264
  • Encoder: Dracarys
  • Mediainfo: Clic para Mostrar Datos Ver
  • Format                      : Matroska
    Format version              : Version 4
    File size                   : 11.4 GiB
    Duration                    : 1 h 59 min
    Overall bit rate mode       : Variable
    Overall bit rate            : 13.7 Mb/s
    Movie name                  : La playa (2000) [Open Matte] WEB-DL [AMZN] 1080p Latino - CMHDD
    Encoded date                : UTC 2020-05-11 00:11:49
    Writing application         : mkvmerge v46.0.0 ('No Deeper Escape') 64-bit
    Writing library             : libebml v1.3.10 + libmatroska v1.5.2

    Video
    ID                          : 1
    Format                      : AVC
    Format/Info                 : Advanced Video Codec
    Format profile              : High@L4
    Format settings             : CABAC / 4 Ref Frames
    Format settings, CABAC      : Yes
    Format settings, Reference  : 4 frames
    Codec ID                    : V_MPEG4/ISO/AVC
    Duration                    : 1 h 59 min
    Bit rate mode               : Variable
    Bit rate                    : 12.9 Mb/s
    Maximum bit rate            : 15.0 Mb/s
    Width                       : 1 920 pixels
    Height                      : 1 080 pixels
    Display aspect ratio        : 16:9
    Frame rate mode             : Constant
    Frame rate                  : 23.976 (24000/1001) FPS
    Color space                 : YUV
    Chroma subsampling          : 4:2:0
    Bit depth                   : 8 bits
    Scan type                   : Progressive
    Bits/(Pixel*Frame)          : 0.259
    Stream size                 : 10.7 GiB (94%)
    Language                    : English
    Default                     : Yes
    Forced                      : No
    Color range                 : Limited
    Color primaries             : BT.709
    Transfer characteristics    : BT.709
    Matrix coefficients         : BT.709

    Audio #1
    ID                          : 2
    Format                      : AC-3
    Format/Info                 : Audio Coding 3
    Commercial name             : Dolby Digital
    Codec ID                    : A_AC3
    Duration                    : 1 h 59 min
    Bit rate mode               : Constant
    Bit rate                    : 224 kb/s
    Channel(s)                  : 2 channels
    Channel layout              : L R
    Sampling rate               : 48.0 kHz
    Frame rate                  : 31.250 FPS (1536 SPF)
    Compression mode            : Lossy
    Delay relative to video     : 7 s 0 ms
    Stream size                 : 191 MiB (2%)
    Language                    : Spanish
    Service kind                : Complete Main
    Default                     : Yes
    Forced                      : No

    Audio #2
    ID                          : 3
    Format                      : E-AC-3
    Format/Info                 : Enhanced AC-3
    Commercial name             : Dolby Digital Plus
    Codec ID                    : A_EAC3
    Duration                    : 1 h 59 min
    Bit rate mode               : Constant
    Bit rate                    : 640 kb/s
    Channel(s)                  : 6 channels
    Channel layout              : L R C LFE Ls Rs
    Sampling rate               : 48.0 kHz
    Frame rate                  : 31.250 FPS (1536 SPF)
    Compression mode            : Lossy
    Stream size                 : 546 MiB (5%)
    Language                    : English
    Service kind                : Complete Main
    Default                     : No
    Forced                      : No

    Text
    ID                          : 4
    Format                      : UTF-8
    Codec ID                    : S_TEXT/UTF8
    Codec ID/Info               : UTF-8 Plain Text
    Duration                    : 1 h 51 min
    Bit rate                    : 45 b/s
    Count of elements           : 1102
    Stream size                 : 37.3 KiB (0%)
    Language                    : Spanish
    Default                     : Yes
    Forced                      : No

  • Peso: 11.4 GiB

Sinopsis

Richard es un joven mochilero que llega a Tailandia en busca de experiencias. Allí conoce a una pareja francesa y a Daffy, un trotamundos colgado por años de viajes y drogas que le habla de un paraíso escondido: una playa no tocada todavía por el turismo. Una noche, Richard encuentra en la puerta de su habitación un mapa para llegar a ese paraíso .Richard emprende el camino acompañado de sus amigos franceses y a pesar de los peligros consigue llegar.

 

 

AC3 2.0 [Netflix] E-AC3 5.1 [Amazon]

Ficha técnica

Video trailer de la película

Enlaces de descarga

Rip de Bluray

Descargar La playa (2000) [Open Matte] WEB-DL [AMZN] 1080p Latino – CMHDD




Aportes de DPeliculasHDmega la pass es:dpeliculashdmega.org Aportes de CinemaniaHD la pass es:cinemaniahdd.com
Guardado en : Aventura , Drama , Romance , Suspenso

Películas relacionadas

descargar La playa (2000) [Open Matte] WEB-DL [AMZN] 1080p Latino – CMHDD WEBDL 1080p gratis, La playa (2000) [Open Matte] WEB-DL [AMZN] 1080p Latino – CMHDD WEBDL mega 1 link, La playa (2000) [Open Matte] WEB-DL [AMZN] 1080p Latino – CMHDD WEBDL pelicula completa, descargar La playa (2000) [Open Matte] WEB-DL [AMZN] 1080p Latino – CMHDD WEBDL gratis en mega.

La playa (2000) [Open Matte] WEB-DL [AMZN] 1080p Latino – CMHDD pelicula full hd, La playa (2000) [Open Matte] WEB-DL [AMZN] 1080p Latino – CMHDD mega latino, La playa (2000) [Open Matte] WEB-DL [AMZN] 1080p Latino – CMHDD 4k latino, La playa (2000) [Open Matte] WEB-DL [AMZN] 1080p Latino – CMHDD pelicula completa, La playa (2000) [Open Matte] WEB-DL [AMZN] 1080p Latino – CMHDD descargar gratis, descargar La playa (2000) [Open Matte] WEB-DL [AMZN] 1080p Latino – CMHDD pelicula latino, La playa (2000) [Open Matte] WEB-DL [AMZN] 1080p Latino – CMHDD 1 link mega, La playa (2000) [Open Matte] WEB-DL [AMZN] 1080p Latino – CMHDD 1 link google drive, La playa (2000) [Open Matte] WEB-DL [AMZN] 1080p Latino – CMHDD hd 1080p latino.
Comentarios 0