×

¿Problemas para descargar con Mozilla, EDGE? Deshabilita la opción "Abrir vinculos en una pestaña nueva" tal como lo muestra ésta imagen.

Batman: La Perdición que llegó a Ciudad Gótica (2023) REMUX 1080p Latino

306 vistas

Información de Batman: La Perdición que llegó a Ciudad Gótica (2023) REMUX 1080p Latino

Datos de la película

  • Calidad: Full 1080p
  • Audio: Español Latino AC3 5.1 BLURAY - Ingles DTS 5.1 BLURAY
  • Subtitulos: Español Latino PGS - Ingles PGS
  • Resolución: 1920x1080p
  • Formato: MKV
  • Codec: H.264
  • Encoder: Melkor
  • Mediainfo: Clic para Mostrar Datos Ver
  • Batman La Perdición que llego a Ciudad Gotica (2023) REMUX 1080p Latino.mkv
    Format                      : Matroska
    Format version              : Version 4
    File size                   : 11.3 GiB
    Duration                    : 1 h 30 min
    Overall bit rate mode       : Variable
    Overall bit rate            : 17.9 Mb/s
    Movie name                  : Batman. The Doom That Came To Gotham (2023) CinemaniaHDD.Net
    Encoded date                : UTC 2023-03-22 18:41:43
    Writing application         : mkvmerge v56.1.0 ('My Friend') 64-bit
    Writing library             : libebml v1.4.2 + libmatroska v1.6.4
    Cover                       : Yes
    Attachments                 : cover.jpg
    Site                        : CinemaniaHDD.Net
    Uploader                    : Melkor

    Video
    ID                          : 1
    ID in the original source m : 4113 (0x1011)
    Format                      : AVC
    Format/Info                 : Advanced Video Codec
    Format profile              : High@L4.1
    Format settings             : CABAC / 4 Ref Frames
    Format settings, CABAC      : Yes
    Format settings, Reference  : 4 frames
    Codec ID                    : V_MPEG4/ISO/AVC
    Duration                    : 1 h 30 min
    Bit rate mode               : Variable
    Bit rate                    : 14.9 Mb/s
    Maximum bit rate            : 40.0 Mb/s
    Width                       : 1 920 pixels
    Height                      : 1 080 pixels
    Display aspect ratio        : 16:9
    Frame rate mode             : Constant
    Frame rate                  : 23.976 (24000/1001) FPS
    Color space                 : YUV
    Chroma subsampling          : 4:2:0
    Bit depth                   : 8 bits
    Scan type                   : Progressive
    Bits/(Pixel*Frame)          : 0.301
    Stream size                 : 9.41 GiB (83%)
    Title                       : REMUX HD1080p [CinemaniaHDD]
    Default                     : Yes
    Forced                      : Yes
    Original source medium      : Blu-ray

    Audio #1
    ID                          : 2
    ID in the original source m : 4353 (0x1101)
    Format                      : AC-3
    Format/Info                 : Audio Coding 3
    Commercial name             : Dolby Digital
    Codec ID                    : A_AC3
    Duration                    : 1 h 30 min
    Bit rate mode               : Constant
    Bit rate                    : 640 kb/s
    Channel(s)                  : 6 channels
    Channel layout              : L R C LFE Ls Rs
    Sampling rate               : 48.0 kHz
    Frame rate                  : 31.250 FPS (1536 SPF)
    Compression mode            : Lossy
    Stream size                 : 412 MiB (4%)
    Title                       : Español Latino [CinemaniaHDD]
    Language                    : Spanish
    Service kind                : Complete Main
    Default                     : Yes
    Forced                      : Yes
    Original source medium      : Blu-ray

    Audio #2
    ID                          : 3
    ID in the original source m : 4352 (0x1100)
    Format                      : DTS XLL
    Format/Info                 : Digital Theater Systems
    Commercial name             : DTS-HD Master Audio
    Codec ID                    : A_DTS
    Duration                    : 1 h 30 min
    Bit rate mode               : Variable
    Bit rate                    : 2 300 kb/s
    Channel(s)                  : 6 channels
    Channel layout              : C L R Ls Rs LFE
    Sampling rate               : 48.0 kHz
    Frame rate                  : 93.750 FPS (512 SPF)
    Bit depth                   : 24 bits
    Compression mode            : Lossless
    Stream size                 : 1.45 GiB (13%)
    Title                       : Ingles [CinemaniaHDD]
    Language                    : English
    Default                     : No
    Forced                      : No
    Original source medium      : Blu-ray

    Text #1
    ID                          : 4
    ID in the original source m : 4611 (0x1203)
    Format                      : PGS
    Muxing mode                 : zlib
    Codec ID                    : S_HDMV/PGS
    Codec ID/Info               : Picture based subtitle format used on BDs/HD-DVDs
    Duration                    : 12 min 13 s
    Bit rate                    : 553 b/s
    Count of elements           : 4
    Stream size                 : 49.6 KiB (0%)
    Title                       : Forzados-PGS [CinemaniaHDD]
    Language                    : Spanish
    Default                     : No
    Forced                      : No
    Original source medium      : Blu-ray

    Text #2
    ID                          : 5
    ID in the original source m : 4610 (0x1202)
    Format                      : PGS
    Muxing mode                 : zlib
    Codec ID                    : S_HDMV/PGS
    Codec ID/Info               : Picture based subtitle format used on BDs/HD-DVDs
    Duration                    : 1 h 29 min
    Bit rate                    : 32.4 kb/s
    Count of elements           : 2128
    Stream size                 : 20.7 MiB (0%)
    Title                       : Español-PGS [CinemaniaHDD]
    Language                    : Spanish
    Default                     : No
    Forced                      : No
    Original source medium      : Blu-ray

    Text #3
    ID                          : 6
    ID in the original source m : 4608 (0x1200)
    Format                      : PGS
    Muxing mode                 : zlib
    Codec ID                    : S_HDMV/PGS
    Codec ID/Info               : Picture based subtitle format used on BDs/HD-DVDs
    Duration                    : 1 h 26 min
    Bit rate                    : 33.9 kb/s
    Count of elements           : 2392
    Stream size                 : 21.1 MiB (0%)
    Title                       : Ingles [CinemaniaHDD]
    Language                    : English
    Default                     : No
    Forced                      : No
    Original source medium      : Blu-ray

    Text #4
    ID                          : 7
    Format                      : UTF-8
    Codec ID                    : S_TEXT/UTF8
    Codec ID/Info               : UTF-8 Plain Text
    Duration                    : 12 min 13 s
    Bit rate                    : 0 b/s
    Count of elements           : 2
    Stream size                 : 65.0 Bytes (0%)
    Title                       : Forzados-SRT [CinemaniaHDD]
    Language                    : Spanish
    Default                     : Yes
    Forced                      : Yes

    Text #5
    ID                          : 8
    Format                      : UTF-8
    Codec ID                    : S_TEXT/UTF8
    Codec ID/Info               : UTF-8 Plain Text
    Duration                    : 1 h 29 min
    Bit rate                    : 52 b/s
    Count of elements           : 1064
    Stream size                 : 34.5 KiB (0%)
    Title                       : Español-SRT [CinemaniaHDD]
    Language                    : Spanish
    Default                     : No
    Forced                      : No

    Menu
    00:00:00.000                : Chapter 01
    00:08:56.536                : Chapter 02
    00:18:33.904                : Chapter 03
    00:28:08.937                : Chapter 04
    00:37:33.042                : Chapter 05
    00:47:05.572                : Chapter 06
    00:56:19.751                : Chapter 07
    01:05:37.433                : Chapter 08
    01:14:06.525                : Chapter 09
    01:23:30.505                : Chapter 10
    01:27:33.414                : Chapter 11

  • Peso: 11.3 GiB

Sinopsis

Descargar Batman: La Perdición que llegó a Ciudad Gótica (2023) REMUX 1080p Latino. El explorador Bruce Wayne desata accidentalmente un antiguo mal y regresa a Ciudad Gótica después de estar fuera durante dos décadas. Allí, Batman lucha contra las fuerzas sobrenaturales de Lovecraft y se encuentra con aliados y enemigos como Green Arrow, Ra’s al Ghul, Mr. Freeze, Killer Croc, Two-Face y James Gordon.

Ficha técnica

Video trailer de la película

Enlaces de descarga

Rip de Bluray

Descargar Batman: La Perdición que llegó a Ciudad Gótica (2023) REMUX 1080p Latino




Aportes de DPeliculasHDmega la pass es:dpeliculashdmega.org Aportes de CinemaniaHD la pass es:cinemaniahdd.com Aportes recientes:cinemaniahdd.net
Guardado en : Acción , Animación , Fantasía , Misterio , Remux , Terror

Películas relacionadas

descargar Batman: La Perdición que llegó a Ciudad Gótica (2023) REMUX 1080p Latino Full 1080p 1080p gratis, Batman: La Perdición que llegó a Ciudad Gótica (2023) REMUX 1080p Latino Full 1080p mega 1 link, Batman: La Perdición que llegó a Ciudad Gótica (2023) REMUX 1080p Latino Full 1080p pelicula completa, descargar Batman: La Perdición que llegó a Ciudad Gótica (2023) REMUX 1080p Latino Full 1080p gratis en mega.

Batman: La Perdición que llegó a Ciudad Gótica (2023) REMUX 1080p Latino pelicula full hd, Batman: La Perdición que llegó a Ciudad Gótica (2023) REMUX 1080p Latino mega latino, Batman: La Perdición que llegó a Ciudad Gótica (2023) REMUX 1080p Latino 4k latino, Batman: La Perdición que llegó a Ciudad Gótica (2023) REMUX 1080p Latino pelicula completa, Batman: La Perdición que llegó a Ciudad Gótica (2023) REMUX 1080p Latino descargar gratis, descargar Batman: La Perdición que llegó a Ciudad Gótica (2023) REMUX 1080p Latino pelicula latino, Batman: La Perdición que llegó a Ciudad Gótica (2023) REMUX 1080p Latino 1 link mega, Batman: La Perdición que llegó a Ciudad Gótica (2023) REMUX 1080p Latino 1 link google drive, Batman: La Perdición que llegó a Ciudad Gótica (2023) REMUX 1080p Latino hd 1080p latino.
Comentarios 0