×

¿Problemas para descargar con Mozilla, EDGE? Deshabilita la opción "Abrir vinculos en una pestaña nueva" tal como lo muestra ésta imagen.

La Pequeña Traviesa (2018) HD 1080p Latino

1.099 vistas

Información de La Pequeña Traviesa (2018) HD 1080p Latino

Datos de la película

  • Calidad: 1080p
  • Audio: Se especifica abajo de la Sinopsis
  • Subtitulos: Español Latino SRT- FORZADOS SRT
  • Resolución: 1920x808p
  • Formato: MKV
  • Codec: H.264
  • Encoder: Melkor
  • Mediainfo: Clic para Mostrar Datos Ver
  • La Pequeña Traviesa (2018) HD 1080p Latino.mkv
    Format                      : Matroska
    Format version              : Version 4
    File size                   : 4.79 GiB
    Duration                    : 1 h 36 min
    Overall bit rate            : 7 080 kb/s
    Movie name                  : Little Miss Dolittle (2018) [Liliane Susewind - Ein tierisches Abenteuer]
    Encoded date                : UTC 2023-02-25 04:22:41
    Writing application         : mkvmerge v56.1.0 ('My Friend') 64-bit
    Writing library             : libebml v1.4.2 + libmatroska v1.6.4
    Attachments                 : CINEMANIAHD.png

    Video
    ID                          : 1
    Format                      : AVC
    Format/Info                 : Advanced Video Codec
    Format profile              : High@L4.1
    Format settings             : CABAC / 5 Ref Frames
    Format settings, CABAC      : Yes
    Format settings, Reference  : 5 frames
    Codec ID                    : V_MPEG4/ISO/AVC
    Duration                    : 1 h 36 min
    Bit rate                    : 5 990 kb/s
    Width                       : 1 920 pixels
    Height                      : 808 pixels
    Display aspect ratio        : 2.40:1
    Frame rate mode             : Constant
    Frame rate                  : 25.000 FPS
    Color space                 : YUV
    Chroma subsampling          : 4:2:0
    Bit depth                   : 8 bits
    Scan type                   : Progressive
    Bits/(Pixel*Frame)          : 0.154
    Stream size                 : 4.05 GiB (85%)
    Title                       : HD1080p [CinemaniaHDD]
    Writing library             : x264 core 157 r2935 545de2f
    Encoding settings           : cabac=1 / ref=5 / deblock=1:-1:-1 / analyse=0x3:0x133 / me=umh / subme=8 / psy=1 / psy_rd=1.00:0.15 / mixed_ref=1 / me_range=16 / chroma_me=1 / trellis=2 / 8x8dct=1 / cqm=0 / deadzone=21,11 / fast_pskip=0 / chroma_qp_offset=-3 / threads=18 / lookahead_threads=3 / sliced_threads=0 / nr=0 / decimate=1 / interlaced=0 / bluray_compat=0 / constrained_intra=0 / bframes=3 / b_pyramid=2 / b_adapt=1 / b_bias=0 / direct=3 / weightb=1 / open_gop=0 / weightp=2 / keyint=250 / keyint_min=25 / scenecut=40 / intra_refresh=0 / rc_lookahead=40 / rc=crf / mbtree=1 / crf=20.0 / qcomp=0.60 / qpmin=10 / qpmax=69 / qpstep=4 / ip_ratio=1.40 / aq=1:1.00
    Default                     : Yes
    Forced                      : Yes

    Audio #1
    ID                          : 2
    Format                      : AC-3
    Format/Info                 : Audio Coding 3
    Commercial name             : Dolby Digital
    Codec ID                    : A_AC3
    Duration                    : 1 h 36 min
    Bit rate mode               : Constant
    Bit rate                    : 640 kb/s
    Channel(s)                  : 6 channels
    Channel layout              : L R C LFE Ls Rs
    Sampling rate               : 48.0 kHz
    Frame rate                  : 31.250 FPS (1536 SPF)
    Compression mode            : Lossy
    Stream size                 : 443 MiB (9%)
    Title                       : Español Latino [CinemaniaHDD]
    Language                    : Spanish
    Service kind                : Complete Main
    Default                     : Yes
    Forced                      : Yes

    Audio #2
    ID                          : 3
    Format                      : AC-3
    Format/Info                 : Audio Coding 3
    Commercial name             : Dolby Digital
    Codec ID                    : A_AC3
    Duration                    : 1 h 36 min
    Bit rate mode               : Constant
    Bit rate                    : 448 kb/s
    Channel(s)                  : 6 channels
    Channel layout              : L R C LFE Ls Rs
    Sampling rate               : 48.0 kHz
    Frame rate                  : 31.250 FPS (1536 SPF)
    Compression mode            : Lossy
    Stream size                 : 310 MiB (6%)
    Title                       : Aleman [CinemaniaHDD]
    Language                    : German
    Service kind                : Complete Main
    Default                     : No
    Forced                      : No

    Text #1
    ID                          : 4
    Format                      : UTF-8
    Codec ID                    : S_TEXT/UTF8
    Codec ID/Info               : UTF-8 Plain Text
    Duration                    : 6 min 40 s
    Bit rate                    : 0 b/s
    Count of elements           : 2
    Stream size                 : 29.0 Bytes (0%)
    Title                       : Forzados-SRT [CinemaniaHDD]
    Language                    : Spanish
    Default                     : Yes
    Forced                      : Yes

    Text #2
    ID                          : 5
    Format                      : UTF-8
    Codec ID                    : S_TEXT/UTF8
    Codec ID/Info               : UTF-8 Plain Text
    Duration                    : 1 h 31 min
    Bit rate                    : 59 b/s
    Count of elements           : 1183
    Stream size                 : 39.7 KiB (0%)
    Title                       : Español-SRT [CinemaniaHDD]
    Language                    : Spanish
    Default                     : No
    Forced                      : No

    Menu
    00:00:00.000                : de:00:00:00.000
    00:05:18.000                : de:00:05:18.000
    00:09:41.760                : de:00:09:41.760
    00:14:01.240                : de:00:14:01.240
    00:22:20.520                : de:00:22:20.520
    00:28:56.280                : de:00:28:56.280
    00:34:28.600                : de:00:34:28.600
    00:37:06.720                : de:00:37:06.720
    00:43:54.080                : de:00:43:54.080
    00:49:09.000                : de:00:49:09.000
    00:53:01.640                : de:00:53:01.640
    00:59:06.800                : de:00:59:06.800
    01:04:07.200                : de:01:04:07.200
    01:09:53.000                : de:01:09:53.000
    01:20:35.400                : de:01:20:35.400
    01:25:40.200                : de:01:25:40.200

  • Peso: 4.79 GiB GiB

Sinopsis

Descargar La Pequeña Traviesa (2018) HD 1080p Latino. ¡Liliane puede hablar con los animales! Pero, excepto por sus padres y su abuela Gerti, nadie lo sabe, este talento especial suyo ha causado bastantes problemas en el pasado. Cuando conoce al distante y misterioso Jess, lentamente comienza a confiar en él. Junto con él y sus nuevos amigos del grupo de estudio del zoológico, inicia una búsqueda del bebé elefante Ronni, que ha sido secuestrado por un ladrón de animales.

Español Latino AC3 5.1 Web – Aleman AC3 5.1 BD
Resubido y Actualizado con mejor Audio

Ficha técnica

Video trailer de la película

Enlaces de descarga

Rip de Bluray

Descargar La Pequeña Traviesa (2018) HD 1080p Latino




Aportes de DPeliculasHDmega la pass es:dpeliculashdmega.org Aportes de CinemaniaHD la pass es:cinemaniahdd.com Aportes recientes:cinemaniahdd.net
Guardado en : Comedia , Familia , Fantasía , HD 1080p

Películas relacionadas

descargar La Pequeña Traviesa (2018) HD 1080p Latino 1080p 1080p gratis, La Pequeña Traviesa (2018) HD 1080p Latino 1080p mega 1 link, La Pequeña Traviesa (2018) HD 1080p Latino 1080p pelicula completa, descargar La Pequeña Traviesa (2018) HD 1080p Latino 1080p gratis en mega.

La Pequeña Traviesa (2018) HD 1080p Latino pelicula full hd, La Pequeña Traviesa (2018) HD 1080p Latino mega latino, La Pequeña Traviesa (2018) HD 1080p Latino 4k latino, La Pequeña Traviesa (2018) HD 1080p Latino pelicula completa, La Pequeña Traviesa (2018) HD 1080p Latino descargar gratis, descargar La Pequeña Traviesa (2018) HD 1080p Latino pelicula latino, La Pequeña Traviesa (2018) HD 1080p Latino 1 link mega, La Pequeña Traviesa (2018) HD 1080p Latino 1 link google drive, La Pequeña Traviesa (2018) HD 1080p Latino hd 1080p latino.
Comentarios 0