×

¿Problemas para descargar con Mozilla, EDGE? Deshabilita la opción "Abrir vinculos en una pestaña nueva" tal como lo muestra ésta imagen.

La Otra Cara de La Guerra (2019) REMUX 1080i Latino

208 vistas

Información de La Otra Cara de La Guerra (2019) REMUX 1080i Latino

Datos de la película

  • Calidad: Full 1080p
  • Audio: Se especifica abajo de la Sinopsis
  • Subtitulos: Español Latino SRT- FORZADOS SRT
  • Resolución: 1920x1080i
  • Formato: MKV
  • Codec: H.264
  • Encoder: Melkor
  • Mediainfo: Clic para Mostrar Datos Ver
  • La Otra Cara De La Guerra (2019) REMUX 1080i Latino.mkv
    Format                      : Matroska
    Format version              : Version 4
    File size                   : 12.6 GiB
    Duration                    : 1 h 44 min
    Overall bit rate mode       : Variable
    Overall bit rate            : 17.3 Mb/s
    Movie name                  : Blizzard Of Souls (2019) CinemaniaHDD.Net
    Encoded date                : UTC 2021-07-22 16:45:54
    Writing application         : mkvmerge v56.1.0 ('My Friend') 64-bit
    Writing library             : libebml v1.4.2 + libmatroska v1.6.4
    Attachments                 : CINEMANIAHD.png

    Video
    ID                          : 1
    Format                      : AVC
    Format/Info                 : Advanced Video Codec
    Format profile              : High@L4.1
    Format settings             : CABAC / 4 Ref Frames
    Format settings, CABAC      : Yes
    Format settings, Reference  : 4 frames
    Codec ID                    : V_MPEG4/ISO/AVC
    Duration                    : 1 h 44 min
    Bit rate mode               : Variable
    Bit rate                    : 15.0 Mb/s
    Maximum bit rate            : 30.0 Mb/s
    Width                       : 1 920 pixels
    Height                      : 1 080 pixels
    Display aspect ratio        : 16:9
    Frame rate mode             : Constant
    Frame rate                  : 25.000 FPS
    Standard                    : Component
    Color space                 : YUV
    Chroma subsampling          : 4:2:0
    Bit depth                   : 8 bits
    Scan type                   : MBAFF
    Scan type, store method     : Interleaved fields
    Scan order                  : Top Field First
    Bits/(Pixel*Frame)          : 0.289
    Stream size                 : 10.9 GiB (87%)
    Title                       : REMUX HD1080i [CinemaniaHDD]
    Writing library             : x264 core 148
    Encoding settings           : cabac=1 / ref=4 / deblock=1:0:0 / analyse=0x3:0x133 / me=umh / subme=9 / psy=1 / psy_rd=1.00:0.00 / mixed_ref=1 / me_range=24 / chroma_me=1 / trellis=2 / 8x8dct=1 / cqm=1 / deadzone=21,11 / fast_pskip=1 / chroma_qp_offset=-2 / threads=34 / lookahead_threads=2 / sliced_threads=0 / slices=4 / nr=0 / decimate=1 / interlaced=tff / minigop=1 / stitchable=1 / constrained_intra=0 / bframes=2 / b_pyramid=0 / b_adapt=2 / b_bias=0 / direct=3 / weightb=1 / open_gop=1 / weightp=0 / keyint=25 / keyint_min=1 / scenecut=40 / intra_refresh=0 / rc_lookahead=25 / rc=2pass / mbtree=1 / bitrate=15000 / ratetol=1.0 / qcomp=0.60 / qpmin=3 / qpmax=69 / qpstep=4 / cplxblur=20.0 / qblur=0.5 / vbv_maxrate=30000 / vbv_bufsize=30000 / nal_hrd=vbr / filler=0 / ip_ratio=1.40 / aq=1:1.00
    Default                     : Yes
    Forced                      : Yes
    Color range                 : Limited
    Color primaries             : BT.709
    Transfer characteristics    : BT.709
    Matrix coefficients         : BT.709

    Audio #1
    ID                          : 2
    Format                      : AC-3
    Format/Info                 : Audio Coding 3
    Commercial name             : Dolby Digital
    Codec ID                    : A_AC3
    Duration                    : 1 h 44 min
    Bit rate mode               : Constant
    Bit rate                    : 384 kb/s
    Channel(s)                  : 6 channels
    Channel layout              : L R C LFE Ls Rs
    Sampling rate               : 48.0 kHz
    Frame rate                  : 31.250 FPS (1536 SPF)
    Compression mode            : Lossy
    Delay relative to video     : -65 ms
    Stream size                 : 287 MiB (2%)
    Title                       : Español Latino [CinemaniaHDD]
    Language                    : Spanish
    Service kind                : Complete Main
    Default                     : Yes
    Forced                      : Yes

    Audio #2
    ID                          : 3
    Format                      : DTS XLL
    Format/Info                 : Digital Theater Systems
    Commercial name             : DTS-HD Master Audio
    Codec ID                    : A_DTS
    Duration                    : 1 h 44 min
    Bit rate mode               : Variable
    Bit rate                    : 1 894 kb/s
    Channel(s)                  : 6 channels
    Channel layout              : C L R Ls Rs LFE
    Sampling rate               : 48.0 kHz
    Frame rate                  : 93.750 FPS (512 SPF)
    Bit depth                   : 16 bits
    Compression mode            : Lossless
    Stream size                 : 1.38 GiB (11%)
    Title                       : Letón [CinemaniaHDD]
    Language                    : Latvian
    Default                     : No
    Forced                      : No

    Text #1
    ID                          : 4
    Format                      : UTF-8
    Codec ID                    : S_TEXT/UTF8
    Codec ID/Info               : UTF-8 Plain Text
    Duration                    : 1 h 34 min
    Bit rate                    : 1 b/s
    Count of elements           : 24
    Stream size                 : 1.03 KiB (0%)
    Title                       : Forzados-SRT [CinemaniaHDD]
    Language                    : Spanish
    Default                     : Yes
    Forced                      : Yes

    Text #2
    ID                          : 5
    Format                      : UTF-8
    Codec ID                    : S_TEXT/UTF8
    Codec ID/Info               : UTF-8 Plain Text
    Duration                    : 1 h 37 min
    Bit rate                    : 25 b/s
    Count of elements           : 674
    Stream size                 : 18.3 KiB (0%)
    Title                       : Español-SRT [CinemaniaHDD]
    Language                    : Spanish
    Default                     : No
    Forced                      : No

    Menu
    00:00:00.000                : :00:00:00.000
    00:12:00.000                : :00:12:00.000
    00:20:36.480                : :00:20:36.480
    00:27:42.000                : :00:27:42.000
    00:35:53.200                : :00:35:53.200
    00:45:51.000                : :00:45:51.000
    00:54:33.400                : :00:54:33.400
    01:03:05.800                : :01:03:05.800
    01:14:17.000                : :01:14:17.000
    01:21:35.000                : :01:21:35.000
    01:29:47.520                : :01:29:47.520
    01:38:16.000                : :01:38:16.000

  • Peso: 12.6 GiB

Sinopsis

Descargar La Otra Cara de La Guerra (2019) REMUX 1080i Latino. La historia de amor de Arturs, de dieciséis años, se ve interrumpida por la Primera Guerra Mundial. Después de perder a su madre y su hogar, encuentra cierto consuelo al unirse al ejército, porque esta es la primera vez que se permiten batallones nacionales en el Imperio Ruso. Pero la guerra no se parece en nada a lo que Arturs imaginó: no hay gloria, no hay justicia. Es brutal y doloroso. Arturs está ahora completamente solo mientras la guerra acaba con la vida de su padre y su hermano. Además, no se avanza en la pronta resolución prometida de la guerra y el regreso oportuno a casa. Con la idea de que solo él se preocupa por regresar a casa y que su tierra natal es solo un patio de recreo para otras naciones, Arturs encuentra la fuerza para la batalla final y finalmente regresa a casa para comenzar todo desde cero, al igual que su país recién nacido.

Español Latino AC3 5.1 WebDL – Letón DTS-HD 5.1 BD

Nota: El source es un Bluray Original BD25 con barrido entrelazado (1080i) 🙂

Ficha técnica

Video trailer de la película

Enlaces de descarga

Rip de Bluray

Descargar La Otra Cara de La Guerra (2019) REMUX 1080i Latino




Aportes de DPeliculasHDmega la pass es:dpeliculashdmega.org Aportes de CinemaniaHD la pass es:cinemaniahdd.com
Guardado en : Bélica , Drama , Historia , Remux

Películas relacionadas

  • Un mundo extraño (2022) REMUX 1080p Latino

    Un mundo extraño (2022) REMUX 1080p Latino

    2022
    Un mundo extraño (2022) REMUX 1080p Latino

    1h 42m 2022

    Descargar Un mundo extraño (2022) REMUX 1080p. Un viaje a una tierra inexplorada y traicionera en la...

    Director: Thai Bettistea

    Género: Animación

    Actores: Reed Buck

  • Stromboli (2022) NF WEB-DL 1080p Latino

    Stromboli (2022) NF WEB-DL 1080p Latino

    2022
    Stromboli (2022) NF WEB-DL 1080p Latino

    1h 26m 2022

    Descargar Stromboli (2022) NF WEB-DL 1080p Latino. Sara, una mujer que se ha divorciado recientemente,...

    Director: Michiel van Erp

    Género: Drama

    Actores: Tim McInnerny

  • Infiesto (2023) NF WEB-DL 1080p Castellano

    Infiesto (2023) NF WEB-DL 1080p Castellano

    2023
    Infiesto (2023) NF WEB-DL 1080p Castellano

    1h 36m 2023

    Descargar Infiesto (2023) NF WEB-DL 1080p Castellano. Mientras el coronavirus trastoca sus vidas, dos...

    Director: Patxi Amezcua

    Género: Crimen

    Actores: Luis Zahera

  • Espiritu Libre (2023) NF WEB-DL 1080p Latino

    Espiritu Libre (2023) NF WEB-DL 1080p Latino

    2023
    Espiritu Libre (2023) NF WEB-DL 1080p Latino

    1h 49m 2023

    Descargar Espiritu Libre (2023) NF WEB-DL 1080p Latino. La película se basa en la increíble historia...

    Director: Sarah Spillane

    Género: Aventura

    Actores: Vivien Turner

  • Corazón de tinta (2008) REMUX 1080p Latino

    Corazón de tinta (2008) REMUX 1080p Latino

    2008
    Corazón de tinta (2008) REMUX 1080p Latino

    1h 46m 2008

    Descargar Corazón de tinta (2008) REMUX 1080p Latino. Mortimer “Mo” Folchart y su hija de 12 años,...

    Director: Sharon Mansfield

    Género: Aventura

    Actores: Tereza Srbová

descargar La Otra Cara de La Guerra (2019) REMUX 1080i Latino Full 1080p 1080p gratis, La Otra Cara de La Guerra (2019) REMUX 1080i Latino Full 1080p mega 1 link, La Otra Cara de La Guerra (2019) REMUX 1080i Latino Full 1080p pelicula completa, descargar La Otra Cara de La Guerra (2019) REMUX 1080i Latino Full 1080p gratis en mega.

La Otra Cara de La Guerra (2019) REMUX 1080i Latino pelicula full hd, La Otra Cara de La Guerra (2019) REMUX 1080i Latino mega latino, La Otra Cara de La Guerra (2019) REMUX 1080i Latino 4k latino, La Otra Cara de La Guerra (2019) REMUX 1080i Latino pelicula completa, La Otra Cara de La Guerra (2019) REMUX 1080i Latino descargar gratis, descargar La Otra Cara de La Guerra (2019) REMUX 1080i Latino pelicula latino, La Otra Cara de La Guerra (2019) REMUX 1080i Latino 1 link mega, La Otra Cara de La Guerra (2019) REMUX 1080i Latino 1 link google drive, La Otra Cara de La Guerra (2019) REMUX 1080i Latino hd 1080p latino.
Comentarios 0