×

¿Problemas para descargar con Mozilla, EDGE? Deshabilita la opción "Abrir vinculos en una pestaña nueva" tal como lo muestra ésta imagen.

La Otra Cara de La Guerra (2019) HD 1080p Latino

206 vistas

Información de La Otra Cara de La Guerra (2019) HD 1080p Latino

Datos de la película

  • Calidad: 1080p
  • Audio: Se especifica abajo de la Sinopsis
  • Subtitulos: Español Latino SRT- FORZADOS SRT
  • Resolución: 1920x808p
  • Formato: MKV
  • Codec: H.264
  • Encoder: Melkor
  • Mediainfo: Clic para Mostrar Datos Ver
  • La Otra Cara De La Guerra (2019) HD 1080p Latino.mkv
    Format                      : Matroska
    Format version              : Version 4
    File size                   : 3.16 GiB
    Duration                    : 1 h 44 min
    Overall bit rate            : 4 333 kb/s
    Movie name                  : Blizzard Of Souls (2019) CinemaniaHDD.Net
    Encoded date                : UTC 2021-07-23 02:40:59
    Writing application         : mkvmerge v56.1.0 ('My Friend') 64-bit
    Writing library             : libebml v1.4.2 + libmatroska v1.6.4
    Attachments                 : CINEMANIAHD.png

    Video
    ID                          : 1
    Format                      : AVC
    Format/Info                 : Advanced Video Codec
    Format profile              : High@L4.1
    Format settings             : CABAC / 5 Ref Frames
    Format settings, CABAC      : Yes
    Format settings, Reference  : 5 frames
    Codec ID                    : V_MPEG4/ISO/AVC
    Duration                    : 1 h 44 min
    Bit rate                    : 3 500 kb/s
    Width                       : 1 920 pixels
    Height                      : 808 pixels
    Display aspect ratio        : 2.40:1
    Frame rate mode             : Constant
    Frame rate                  : 25.000 FPS
    Color space                 : YUV
    Chroma subsampling          : 4:2:0
    Bit depth                   : 8 bits
    Scan type                   : Progressive
    Bits/(Pixel*Frame)          : 0.090
    Stream size                 : 2.55 GiB (81%)
    Title                       : HD1080p [CinemaniaHDD]
    Writing library             : x264 core 157 r2935 545de2f
    Encoding settings           : cabac=1 / ref=5 / deblock=1:-1:-1 / analyse=0x3:0x133 / me=umh / subme=9 / psy=1 / psy_rd=1.00:0.15 / mixed_ref=1 / me_range=16 / chroma_me=1 / trellis=2 / 8x8dct=1 / cqm=0 / deadzone=21,11 / fast_pskip=1 / chroma_qp_offset=-3 / threads=24 / lookahead_threads=2 / sliced_threads=0 / nr=0 / decimate=1 / interlaced=0 / bluray_compat=0 / constrained_intra=0 / bframes=3 / b_pyramid=2 / b_adapt=2 / b_bias=0 / direct=3 / weightb=1 / open_gop=0 / weightp=2 / keyint=250 / keyint_min=25 / scenecut=40 / intra_refresh=0 / rc_lookahead=60 / rc=2pass / mbtree=1 / bitrate=3500 / ratetol=1.0 / qcomp=0.60 / qpmin=0 / qpmax=69 / qpstep=4 / cplxblur=20.0 / qblur=0.5 / vbv_maxrate=62500 / vbv_bufsize=78125 / nal_hrd=none / filler=0 / ip_ratio=1.40 / aq=1:1.00
    Default                     : Yes
    Forced                      : Yes
    Color range                 : Limited
    Color primaries             : BT.709
    Transfer characteristics    : BT.709
    Matrix coefficients         : BT.709

    Audio #1
    ID                          : 2
    Format                      : AC-3
    Format/Info                 : Audio Coding 3
    Commercial name             : Dolby Digital
    Codec ID                    : A_AC3
    Duration                    : 1 h 44 min
    Bit rate mode               : Constant
    Bit rate                    : 384 kb/s
    Channel(s)                  : 6 channels
    Channel layout              : L R C LFE Ls Rs
    Sampling rate               : 48.0 kHz
    Frame rate                  : 31.250 FPS (1536 SPF)
    Compression mode            : Lossy
    Delay relative to video     : -5 ms
    Stream size                 : 287 MiB (9%)
    Title                       : Español Latino [CinemaniaHDD]
    Language                    : Spanish
    Service kind                : Complete Main
    Default                     : Yes
    Forced                      : Yes

    Audio #2
    ID                          : 3
    Format                      : AC-3
    Format/Info                 : Audio Coding 3
    Commercial name             : Dolby Digital
    Codec ID                    : A_AC3
    Duration                    : 1 h 44 min
    Bit rate mode               : Constant
    Bit rate                    : 448 kb/s
    Channel(s)                  : 6 channels
    Channel layout              : L R C LFE Ls Rs
    Sampling rate               : 48.0 kHz
    Frame rate                  : 31.250 FPS (1536 SPF)
    Compression mode            : Lossy
    Delay relative to video     : -5 ms
    Stream size                 : 334 MiB (10%)
    Title                       : Letón [CinemaniaHDD]
    Language                    : Latvian
    Service kind                : Complete Main
    Default                     : No
    Forced                      : No

    Text #1
    ID                          : 4
    Format                      : UTF-8
    Codec ID                    : S_TEXT/UTF8
    Codec ID/Info               : UTF-8 Plain Text
    Duration                    : 1 h 34 min
    Bit rate                    : 1 b/s
    Count of elements           : 24
    Stream size                 : 1.03 KiB (0%)
    Title                       : Forzados-SRT [CinemaniaHDD]
    Language                    : Spanish
    Default                     : Yes
    Forced                      : Yes

    Text #2
    ID                          : 5
    Format                      : UTF-8
    Codec ID                    : S_TEXT/UTF8
    Codec ID/Info               : UTF-8 Plain Text
    Duration                    : 1 h 37 min
    Bit rate                    : 25 b/s
    Count of elements           : 674
    Stream size                 : 18.3 KiB (0%)
    Title                       : Español-SRT [CinemaniaHDD]
    Language                    : Spanish
    Default                     : No
    Forced                      : No

    Menu
    00:00:00.000                : :00:00:00.000
    00:12:00.000                : :00:12:00.000
    00:20:36.480                : :00:20:36.480
    00:27:42.000                : :00:27:42.000
    00:35:53.200                : :00:35:53.200
    00:45:51.000                : :00:45:51.000
    00:54:33.400                : :00:54:33.400
    01:03:05.800                : :01:03:05.800
    01:14:17.000                : :01:14:17.000
    01:21:35.000                : :01:21:35.000
    01:29:47.520                : :01:29:47.520
    01:38:16.000                : :01:38:16.000

  • Peso: 3.16 GiB

Sinopsis

Descargar La Otra Cara de La Guerra (2019) HD 1080p Latino. La historia de amor de Arturs, de dieciséis años, se ve interrumpida por la Primera Guerra Mundial. Después de perder a su madre y su hogar, encuentra cierto consuelo al unirse al ejército, porque esta es la primera vez que se permiten batallones nacionales en el Imperio Ruso. Pero la guerra no se parece en nada a lo que Arturs imaginó: no hay gloria, no hay justicia. Es brutal y doloroso. Arturs está ahora completamente solo mientras la guerra acaba con la vida de su padre y su hermano. Además, no se avanza en la pronta resolución prometida de la guerra y el regreso oportuno a casa. Con la idea de que solo él se preocupa por regresar a casa y que su tierra natal es solo un patio de recreo para otras naciones, Arturs encuentra la fuerza para la batalla final y finalmente regresa a casa para comenzar todo desde cero, al igual que su país recién nacido.

Español Latino AC3 5.1 WebDL – Letón AC3 5.1 BD

Ficha técnica

Video trailer de la película

Enlaces de descarga

Rip de Bluray

Descargar La Otra Cara de La Guerra (2019) HD 1080p Latino




Aportes de DPeliculasHDmega la pass es:dpeliculashdmega.org Aportes de CinemaniaHD la pass es:cinemaniahdd.com
Guardado en : Bélica , Drama , HD 1080p , Historia

Películas relacionadas

  • Emily la criminal (2022) HD 1080p Latino

    Emily la criminal (2022) HD 1080p Latino

    2022
    Emily la criminal (2022) HD 1080p Latino

    1h 37m 2022

    Descargar Emily la criminal (2022) HD 1080p Latino. Emily, que tiene una deuda estudiantil y está excluida...

    Director: John Patton Ford

    Género: Crimen

    Actores: Theo Rossi

  • Emily la criminal (2022) REMUX 1080p Latino

    Emily la criminal (2022) REMUX 1080p Latino

    2022
    Emily la criminal (2022) REMUX 1080p Latino

    1h 37m 2022

    Descargar Emily la criminal (2022) REMUX 1080p Latino. Emily, que tiene una deuda estudiantil y está...

    Director: John Patton Ford

    Género: Crimen

    Actores: Theo Rossi

  • Herencia peligrosa (2022) HD 1080p Latino

    Herencia peligrosa (2022) HD 1080p Latino

    2022
    Herencia peligrosa (2022) HD 1080p Latino

    1h 34m 2022

    Descargar Herencia peligrosa (2022) HD 1080p Latino. Tres ladrones se hacen con el yate de lujo de una...

    Director: Declan Whitebloom

    Género: Acción

    Actores: Vernon Davis

  • Território Hostil (2022) HD 1080p Latino

    Território Hostil (2022) HD 1080p Latino

    2022
    Território Hostil (2022) HD 1080p Latino

    1h 34m 2022

    Descargar Território Hostil (2022) HD 1080p Latino. En los Estados Unidos posteriores a la guerra civil,...

    Director: Brian Presley

    Género: Drama

    Actores: Natalie Whittle

descargar La Otra Cara de La Guerra (2019) HD 1080p Latino 1080p 1080p gratis, La Otra Cara de La Guerra (2019) HD 1080p Latino 1080p mega 1 link, La Otra Cara de La Guerra (2019) HD 1080p Latino 1080p pelicula completa, descargar La Otra Cara de La Guerra (2019) HD 1080p Latino 1080p gratis en mega.

La Otra Cara de La Guerra (2019) HD 1080p Latino pelicula full hd, La Otra Cara de La Guerra (2019) HD 1080p Latino mega latino, La Otra Cara de La Guerra (2019) HD 1080p Latino 4k latino, La Otra Cara de La Guerra (2019) HD 1080p Latino pelicula completa, La Otra Cara de La Guerra (2019) HD 1080p Latino descargar gratis, descargar La Otra Cara de La Guerra (2019) HD 1080p Latino pelicula latino, La Otra Cara de La Guerra (2019) HD 1080p Latino 1 link mega, La Otra Cara de La Guerra (2019) HD 1080p Latino 1 link google drive, La Otra Cara de La Guerra (2019) HD 1080p Latino hd 1080p latino.
Comentarios 0