×

¿Problemas para descargar con Mozilla, EDGE? Deshabilita la opción "Abrir vinculos en una pestaña nueva" tal como lo muestra ésta imagen.

La Otra Cara de Dorian (2023) WEB-DL 1080p Latino

68 vistas

Información de La Otra Cara de Dorian (2023) WEB-DL 1080p Latino

Datos de la película

  • Calidad: WEBDL
  • Audio: Español Latino AC3 5.1 WEB-DL - Ingles AC3 5.1 WEB-DL
  • Subtitulos: Español Latino SRT- FORZADOS SRT
  • Resolución: 1920x816p
  • Formato: MKV
  • Codec: H.264
  • Encoder: Melkor
  • Mediainfo: Clic para Mostrar Datos Ver
  • The Picture of Dorian Gray (2023) WEB 1080p Latino.mkv
    Format                      : Matroska
    Format version              : Version 4
    File size                   : 5.18 GiB
    Duration                    : 1 h 40 min
    Overall bit rate            : 7 414 kb/s
    Movie name                  : The Picture of Dorian Gray (2023) CinemaniaHDD.Net
    Encoded date                : UTC 2024-05-21 06:22:22
    Writing application         : mkvmerge v56.1.0 ('My Friend') 64-bit
    Writing library             : libebml v1.4.2 + libmatroska v1.6.4
    Attachments                 : CINEMANIAHD.png
    Site                        : CinemaniaHDD.Net
    Uploader                    : Melkor

    Video
    ID                          : 1
    Format                      : AVC
    Format/Info                 : Advanced Video Codec
    Format profile              : High@L4
    Format settings             : CABAC / 5 Ref Frames
    Format settings, CABAC      : Yes
    Format settings, Reference  : 5 frames
    Codec ID                    : V_MPEG4/ISO/AVC
    Duration                    : 1 h 40 min
    Bit rate                    : 6 644 kb/s
    Width                       : 1 920 pixels
    Height                      : 816 pixels
    Display aspect ratio        : 2.35:1
    Frame rate mode             : Constant
    Frame rate                  : 23.976 (24000/1001) FPS
    Color space                 : YUV
    Chroma subsampling          : 4:2:0
    Bit depth                   : 8 bits
    Scan type                   : Progressive
    Bits/(Pixel*Frame)          : 0.177
    Stream size                 : 4.64 GiB (90%)
    Title                       : Web HD1080p [CinemaniaHDD]
    Default                     : Yes
    Forced                      : Yes
    Color range                 : Limited
    Color primaries             : BT.709
    Transfer characteristics    : BT.709
    Matrix coefficients         : BT.709

    Audio #1
    ID                          : 2
    Format                      : AC-3
    Format/Info                 : Audio Coding 3
    Commercial name             : Dolby Digital
    Codec ID                    : A_AC3
    Duration                    : 1 h 40 min
    Bit rate mode               : Constant
    Bit rate                    : 384 kb/s
    Channel(s)                  : 6 channels
    Channel layout              : L R C LFE Ls Rs
    Sampling rate               : 48.0 kHz
    Frame rate                  : 31.250 FPS (1536 SPF)
    Compression mode            : Lossy
    Stream size                 : 275 MiB (5%)
    Title                       : Español Latino [CinemaniaHDD]
    Language                    : Spanish
    Service kind                : Complete Main
    Default                     : Yes
    Forced                      : Yes

    Audio #2
    ID                          : 3
    Format                      : AC-3
    Format/Info                 : Audio Coding 3
    Commercial name             : Dolby Digital
    Codec ID                    : A_AC3
    Duration                    : 1 h 40 min
    Bit rate mode               : Constant
    Bit rate                    : 384 kb/s
    Channel(s)                  : 6 channels
    Channel layout              : L R C LFE Ls Rs
    Sampling rate               : 48.0 kHz
    Frame rate                  : 31.250 FPS (1536 SPF)
    Compression mode            : Lossy
    Stream size                 : 275 MiB (5%)
    Title                       : Ingles [CinemaniaHDD]
    Language                    : English
    Service kind                : Complete Main
    Default                     : No
    Forced                      : No

    Text #1
    ID                          : 4
    Format                      : UTF-8
    Codec ID                    : S_TEXT/UTF8
    Codec ID/Info               : UTF-8 Plain Text
    Duration                    : 1 h 35 min
    Bit rate                    : 0 b/s
    Count of elements           : 7
    Stream size                 : 261 Bytes (0%)
    Title                       : Forzados-SRT [CinemaniaHDD]
    Language                    : Spanish
    Default                     : Yes
    Forced                      : Yes

    Text #2
    ID                          : 5
    Format                      : UTF-8
    Codec ID                    : S_TEXT/UTF8
    Codec ID/Info               : UTF-8 Plain Text
    Duration                    : 1 h 36 min
    Bit rate                    : 43 b/s
    Count of elements           : 1031
    Stream size                 : 30.4 KiB (0%)
    Title                       : Español-SRT [CinemaniaHDD]
    Language                    : Spanish
    Default                     : No
    Forced                      : No

  • Peso: 5.18 GiB

Sinopsis

Descargar La Otra Cara de Dorian (2023) WEB-DL 1080p Latino. Una versión moderna del cuento de Oscar Wilde. Dorian recibe la tutoría del solitario ícono de la pantalla Lady Amelia Wotton para su debut como Lady Macbeth. Cuando la nieta de Wotton fotografía a Dorian, las chicas se acercan más.

Ficha técnica

Video trailer de la película

Enlaces de descarga

Rip de Bluray

Descargar La Otra Cara de Dorian (2023) WEB-DL 1080p Latino




Aportes de DPeliculasHDmega la pass es:dpeliculashdmega.org Aportes de CinemaniaHD la pass es:cinemaniahdd.com Aportes recientes:cinemaniahdd.net
Guardado en : Drama , Fantasía , Suspenso , Terror

Películas relacionadas

descargar La Otra Cara de Dorian (2023) WEB-DL 1080p Latino WEBDL 1080p gratis, La Otra Cara de Dorian (2023) WEB-DL 1080p Latino WEBDL mega 1 link, La Otra Cara de Dorian (2023) WEB-DL 1080p Latino WEBDL pelicula completa, descargar La Otra Cara de Dorian (2023) WEB-DL 1080p Latino WEBDL gratis en mega.

La Otra Cara de Dorian (2023) WEB-DL 1080p Latino pelicula full hd, La Otra Cara de Dorian (2023) WEB-DL 1080p Latino mega latino, La Otra Cara de Dorian (2023) WEB-DL 1080p Latino 4k latino, La Otra Cara de Dorian (2023) WEB-DL 1080p Latino pelicula completa, La Otra Cara de Dorian (2023) WEB-DL 1080p Latino descargar gratis, descargar La Otra Cara de Dorian (2023) WEB-DL 1080p Latino pelicula latino, La Otra Cara de Dorian (2023) WEB-DL 1080p Latino 1 link mega, La Otra Cara de Dorian (2023) WEB-DL 1080p Latino 1 link google drive, La Otra Cara de Dorian (2023) WEB-DL 1080p Latino hd 1080p latino.
Comentarios 0