La ola (Bølgen) (2015) Full 1080p Latino

1.275 vistas
1 estrella2 estrellas3 estrellas4 estrellas5 estrellas (1 votos, promedio: 5,00 de 5)
Cargando…

Información de La ola (Bølgen) (2015) Full 1080p Latino

Datos de la película

  • Calidad: Full 1080p
  • Audio: Se especifica abajo de la Sinopsis
  • Subtitulos: Español Latino PGS - Ingles PGS
  • Resolución: 1920X1080
  • Formato: MKV
  • Codec: H.264
  • Encoder: Dpelis
  • Mediainfo: Clic para Mostrar Datos Ver
  • Format                                   : Matroska
    Format version                           : Version 4 / Version 2
    File size                                : 4.56 GiB
    Duration                                 : 1 h 45 min
    Overall bit rate                         : 6 208 kb/s
    Movie name                               : dpeliculashdmega.org
    Encoded date                             : UTC 2017-11-16 06:59:05 / UTC 2017-11-15T05:16:41Z
    Writing application                      : mkvmerge v15.0.0 ('Duel with the Devil') 64-bit
    Writing library                          : libebml v1.3.5 + libmatroska v1.4.5 / Lavf57.7.2

    Video
    ID                                       : 1
    Format                                   : AVC
    Format/Info                              : Advanced Video Codec
    Format profile                           : [email protected]
    Format settings                          : CABAC / 4 Ref Frames
    Format settings, CABAC                   : Yes
    Format settings, RefFrames               : 4 frames
    Codec ID                                 : V_MPEG4/ISO/AVC
    Duration                                 : 1 h 45 min
    Bit rate                                 : 4 932 kb/s
    Width                                    : 1 920 pixels
    Height                                   : 1 080 pixels
    Display aspect ratio                     : 16:9
    Frame rate mode                          : Constant
    Frame rate                               : 23.976 (24000/1001) FPS
    Color space                              : YUV
    Chroma subsampling                       : 4:2:0
    Bit depth                                : 8 bits
    Scan type                                : Progressive
    Bits/(Pixel*Frame)                       : 0.099
    Stream size                              : 3.62 GiB (79%)
    Title                                    : La ola (Bølgen) (2015) Full 1080p Latino
    Writing library                          : x264 core 148 r2708 86b7198
    Encoding settings                        : cabac=1 / ref=4 / deblock=1:0:0 / analyse=0x3:0x133 / me=esa / subme=10 / psy=1 / psy_rd=1.00:0.00 / mixed_ref=1 / me_range=24 / chroma_me=1 / trellis=2 / 8x8dct=1 / cqm=0 / deadzone=21,11 / fast_pskip=1 / chroma_qp_offset=-2 / threads=34 / lookahead_threads=5 / sliced_threads=0 / nr=0 / decimate=1 / interlaced=0 / bluray_compat=0 / constrained_intra=0 / bframes=8 / b_pyramid=2 / b_adapt=2 / b_bias=0 / direct=3 / weightb=1 / open_gop=0 / weightp=2 / keyint=240 / keyint_min=24 / scenecut=40 / intra_refresh=0 / rc_lookahead=60 / rc=crf / mbtree=1 / crf=20.0 / qcomp=0.60 / qpmin=0 / qpmax=69 / qpstep=4 / vbv_maxrate=62500 / vbv_bufsize=78125 / crf_max=0.0 / nal_hrd=none / filler=0 / ip_ratio=1.40 / aq=1:1.00
    Language                                 : Norwegian
    Default                                  : Yes
    Forced                                   : No
    Color range                              : Limited
    Color primaries                          : BT.709
    Transfer characteristics                 : BT.709
    Matrix coefficients                      : BT.709
    Statistics Tags Issue                    : mkvmerge v15.0.0 ('Duel with the Devil') 64-bit 2017-11-16 06:59:05 / mkvmerge v15.0.0 ('Duel with the Devil') 64-bit 2017-11-16 06:59:05 / UTC 2017-11-15T05:16:41Z
    FromStats_BitRate                        : 5030786
    FromStats_Duration                       : 01:45:10.346000000
    FromStats_FrameCount                     : 151297
    FromStats_StreamSize                     : 3968250734

    Audio #1
    ID                                       : 2
    Format                                   : AC-3
    Format/Info                              : Audio Coding 3
    Format settings, Endianness              : Big
    Codec ID                                 : A_AC3
    Duration                                 : 1 h 45 min
    Bit rate mode                            : Constant
    Bit rate                                 : 512 kb/s
    Channel(s)                               : 6 channels
    Channel positions                        : Front: L C R, Side: L R, LFE
    Sampling rate                            : 48.0 kHz
    Frame rate                               : 31.250 FPS (1536 SPF)
    Bit depth                                : 16 bits
    Compression mode                         : Lossy
    Stream size                              : 385 MiB (8%)
    Title                                    : Latino-AC3
    Language                                 : Spanish
    Service kind                             : Complete Main
    Default                                  : Yes
    Forced                                   : No
    Statistics Tags Issue                    : mkvmerge v15.0.0 ('Duel with the Devil') 64-bit 2017-11-16 06:59:05 / mkvmerge v15.0.0 ('Duel with the Devil') 64-bit 2017-11-16 06:59:05 / UTC 2017-11-15T05:16:41Z
    FromStats_BitRate                        : 512000
    FromStats_Duration                       : 01:45:11.392000000
    FromStats_FrameCount                     : 197231
    FromStats_StreamSize                     : 403929088

    Audio #2
    ID                                       : 3
    Format                                   : AC-3
    Format/Info                              : Audio Coding 3
    Format settings, Endianness              : Big
    Codec ID                                 : A_AC3
    Duration                                 : 1 h 45 min
    Bit rate mode                            : Constant
    Bit rate                                 : 640 kb/s
    Channel(s)                               : 6 channels
    Channel positions                        : Front: L C R, Side: L R, LFE
    Sampling rate                            : 48.0 kHz
    Frame rate                               : 31.250 FPS (1536 SPF)
    Bit depth                                : 16 bits
    Compression mode                         : Lossy
    Stream size                              : 482 MiB (10%)
    Title                                    : Norugo-AC3
    Language                                 : Norwegian
    Service kind                             : Complete Main
    Default                                  : No
    Forced                                   : No
    Statistics Tags Issue                    : mkvmerge v15.0.0 ('Duel with the Devil') 64-bit 2017-11-16 06:59:05 / mkvmerge v15.0.0 ('Duel with the Devil') 64-bit 2017-11-16 06:59:05 / UTC 2017-11-15T05:16:41Z
    FromStats_BitRate                        : 640000
    FromStats_Duration                       : 01:45:10.368000000
    FromStats_FrameCount                     : 197199
    FromStats_StreamSize                     : 504829440

    Text #1
    ID                                       : 4
    Format                                   : PGS
    Muxing mode                              : zlib
    Codec ID                                 : S_HDMV/PGS
    Codec ID/Info                            : Picture based subtitle format used on BDs/HD-DVDs
    Language                                 : English
    Default                                  : No
    Forced                                   : No
    Statistics Tags Issue                    : mkvmerge v15.0.0 ('Duel with the Devil') 64-bit 2017-11-16 06:59:05 / mkvmerge v15.0.0 ('Duel with the Devil') 64-bit 2017-11-16 06:59:05 / UTC 2017-11-15T05:16:41Z
    FromStats_BitRate                        : 25071
    FromStats_Duration                       : 01:44:23.590000000
    FromStats_FrameCount                     : 1224
    FromStats_StreamSize                     : 19629546

    Text #2
    ID                                       : 5
    Format                                   : PGS
    Muxing mode                              : zlib
    Codec ID                                 : S_HDMV/PGS
    Codec ID/Info                            : Picture based subtitle format used on BDs/HD-DVDs
    Language                                 : Spanish
    Default                                  : No
    Forced                                   : No
    Statistics Tags Issue                    : mkvmerge v15.0.0 ('Duel with the Devil') 64-bit 2017-11-16 06:59:05 / mkvmerge v15.0.0 ('Duel with the Devil') 64-bit 2017-11-16 06:59:05 / UTC 2017-11-15T05:16:41Z
    FromStats_BitRate                        : 25311
    FromStats_Duration                       : 01:44:23.590000000
    FromStats_FrameCount                     : 1256
    FromStats_StreamSize                     : 19817445

    Menu
    00:00:00.000                             : :Chapter 1
    00:11:33.943                             : :Chapter 2
    00:19:49.980                             : :Chapter 3
    00:33:09.863                             : :Chapter 4
    00:38:48.868                             : :Chapter 5
    00:47:37.313                             : :Chapter 6
    00:54:35.189                             : :Chapter 7
    01:00:09.106                             : :Chapter 8
    01:12:14.413                             : :Chapter 9
    01:23:55.447                             : :Chapter 10
    01:34:25.827                             : :Chapter 11
    01:40:57.385                             : :Chapter 12

  • Peso: 4.56 GiB

Sinopsis

Nadie estaba realmente preparado para la caída del paso de montaña de Åkneset sobre el estrecho fiordo noruego Geiranger, que genera una violenta ola de 85 metros que amenaza con arrasarlo todo a su paso. Un geólogo se encuentra en medio de ese peligroso tsunami atrapado en un pueblo al pie de la montaña y tendrá que ayudar a escapar a los habitantes. Pero solo tienen diez minutos si quieren evitar ser engullidos.

 

 

Audios: Latino AC3 5.1 DVD – Noruego AC3 5,1 BluRay

Ficha técnica

Video trailer de la película

Enlaces de descarga

Rip de Bluray

Descargar La ola (Bølgen) (2015) Full 1080p Latino




Aportes de DPeliculasHDmega la pass es:dpeliculashdmega.org Aportes de CinemaniaHD la pass es:cinemaniahdd.com

Películas relacionadas

  • Poseído (2018) WEB-DL 1080p Latino

    2018
    Poseído (2018) WEB-DL 1080p Latino

    0.0 1h 27m 2018

    Mary está embarazada de gemelos, pero, en el parto, uno de los bebés muere. Diagnosticada con depresión...

    Director: Brandon Christensen

    Género: Suspense

    Actores: Sheila McCarthy

  • La favorita (2018) 1080p Latino

    2018
    La favorita (2018) 1080p Latino

    0.0 2h 0m 2018

    Descargar La favorita (2018) 1080p Latino, Mega, Google Drive, Torrent. Principios del siglo XVIII. Inglaterra...

    Director: Yorgos Lanthimos

    Género: Comedia

    Actores: Wilson Radjou-Pujalte

  • Painless (2017) WEB-DL 1080p Latino

    2017
    Painless (2017) WEB-DL 1080p Latino

    0.0 1h 21m 2017

    Henry Long busca desesperadamente una cura para la afección que lo deja incapaz de sentir dolor físico.

    Director: Jordan Horowitz

    Género: Drama

    Actores: Valeria Sistrunk

  • Suburra (2019) Temporada 2 NF 1080p Latino

    2017
    Suburra (2019) Temporada 2 NF 1080p Latino

    0.0 0h 52m 2017

    Suburra (2019) Temporada 2 NF 1080p Latino, En 2008, una lucha por la tierra en una ciudad costera cerca...

    Director: Daniele Cesarano

    Género: Crimen

    Actores: Giacomo Ferrara

Comentarios 0