×

¿Problemas para descargar con Mozilla, EDGE? Deshabilita la opción "Abrir vinculos en una pestaña nueva" tal como lo muestra ésta imagen.

La odisea de los giles (2019) WEB-DL 1080p Latino

3.238 vistas

Información de La odisea de los giles (2019) WEB-DL 1080p Latino

Datos de la película

  • Calidad: WEBDL
  • Audio: Español Latino AC3 5.1 iTunes
  • Subtitulos: No
  • Resolución: 1914x800
  • Formato: MKV
  • Codec: H.264
  • Encoder: cinemaniahd
  • Mediainfo: Clic para Mostrar Datos Ver
  • La Odisea de los Giles (2019) WEB-DL 1080p Latino.mkv
    Format                      : Matroska
    Format version              : Version 4
    File size                   : 4.00 GiB
    Duration                    : 1 h 56 min
    Overall bit rate            : 4 932 kb/s
    Encoded date                : UTC 2020-01-15 17:01:36
    Writing application         : mkvmerge v38.0.0 ('The Silent Type') 64-bit
    Writing library             : libebml v1.3.9 + libmatroska v1.5.2

    Video
    ID                          : 1
    Format                      : AVC
    Format/Info                 : Advanced Video Codec
    Format profile              : High@L4
    Format settings             : CABAC / 5 Ref Frames
    Format settings, CABAC      : Yes
    Format settings, ReFrames   : 5 frames
    Codec ID                    : V_MPEG4/ISO/AVC
    Duration                    : 1 h 56 min
    Bit rate                    : 4 546 kb/s
    Width                       : 1 914 pixels
    Height                      : 800 pixels
    Display aspect ratio        : 2.40:1
    Frame rate mode             : Constant
    Frame rate                  : 23.976 FPS
    Color space                 : YUV
    Chroma subsampling          : 4:2:0
    Bit depth                   : 8 bits
    Scan type                   : Progressive
    Bits/(Pixel*Frame)          : 0.124
    Stream size                 : 3.69 GiB (92%)
    Language                    : English
    Default                     : Yes
    Forced                      : No
    Color range                 : Limited
    Color primaries             : BT.709
    Transfer characteristics    : BT.709
    Matrix coefficients         : BT.709

    Audio
    ID                          : 2
    Format                      : AC-3
    Format/Info                 : Audio Coding 3
    Commercial name             : Dolby Digital
    Codec ID                    : A_AC3
    Duration                    : 1 h 56 min
    Bit rate mode               : Constant
    Bit rate                    : 384 kb/s
    Channel(s)                  : 6 channels
    Channel layout              : L R C LFE Ls Rs
    Sampling rate               : 48.0 kHz
    Frame rate                  : 31.250 FPS (1536 SPF)
    Bit depth                   : 16 bits
    Compression mode            : Lossy
    Delay relative to video     : -42 ms
    Stream size                 : 319 MiB (8%)
    Language                    : Spanish
    Service kind                : Complete Main
    Default                     : Yes
    Forced                      : No

    Menu
    00:00:00.000                : en:1
    00:08:06.569                : en:2
    00:18:34.405                : en:3
    00:25:26.191                : en:4
    00:33:53.239                : en:5
    00:45:20.175                : en:6
    00:58:00.017                : en:7
    01:09:31.375                : en:8
    01:20:38.166                : en:9
    01:28:43.484                : en:10
    01:37:06.820                : en:11
    01:45:36.246                : en:12

  • Peso: 4.00 GiB

Sinopsis

En un pueblo del Noroeste de la provincia de Buenos Aires, un grupo de vecinos se organiza para recuperar la economía de la zona, pero cuando el Corralito se implementa en el país y sufren un fraude, sus esperanzas desaparecen. Ahora, se unirán para recuperar el dinero perdido y dar el golpe de sus vidas a su mayor enemigo.

Ficha técnica

Video trailer de la película

Enlaces de descarga

Rip de Bluray

Descargar La odisea de los giles (2019) WEB-DL 1080p Latino




Aportes de DPeliculasHDmega la pass es:dpeliculashdmega.org Aportes de CinemaniaHD la pass es:cinemaniahdd.com
Guardado en : Aventura , Comedia , Drama

Películas relacionadas

descargar La odisea de los giles (2019) WEB-DL 1080p Latino WEBDL 1080p gratis, La odisea de los giles (2019) WEB-DL 1080p Latino WEBDL mega 1 link, La odisea de los giles (2019) WEB-DL 1080p Latino WEBDL pelicula completa, descargar La odisea de los giles (2019) WEB-DL 1080p Latino WEBDL gratis en mega.

La odisea de los giles (2019) WEB-DL 1080p Latino pelicula full hd, La odisea de los giles (2019) WEB-DL 1080p Latino mega latino, La odisea de los giles (2019) WEB-DL 1080p Latino 4k latino, La odisea de los giles (2019) WEB-DL 1080p Latino pelicula completa, La odisea de los giles (2019) WEB-DL 1080p Latino descargar gratis, descargar La odisea de los giles (2019) WEB-DL 1080p Latino pelicula latino, La odisea de los giles (2019) WEB-DL 1080p Latino 1 link mega, La odisea de los giles (2019) WEB-DL 1080p Latino 1 link google drive, La odisea de los giles (2019) WEB-DL 1080p Latino hd 1080p latino.
Comentarios 0