×

¿Problemas para descargar con Mozilla, EDGE? Deshabilita la opción "Abrir vinculos en una pestaña nueva" tal como lo muestra ésta imagen.

La Nueva Noche De Los Muertos Vivientes (2021) REMUX 1080p Latino

145 vistas

Información de La Nueva Noche De Los Muertos Vivientes (2021) REMUX 1080p Latino

Datos de la película

  • Calidad: Full 1080p
  • Audio: Español Latino AC3 5.1 BLURAY - Ingles DTS 5.1 BLURAY
  • Subtitulos: Español Latino PGS - Ingles PGS
  • Resolución: 1920x1080p
  • Formato: MKV
  • Codec: H.264
  • Encoder: Melkor
  • Mediainfo: Clic para Mostrar Datos Ver
  • La Nueva Noche de los Muertos Vivientes (2021) REMUX 1080p Latino.mkv
    Format                      : Matroska
    Format version              : Version 4
    File size                   : 9.30 GiB
    Duration                    : 1 h 10 min
    Overall bit rate mode       : Variable
    Overall bit rate            : 18.8 Mb/s
    Movie name                  : Night of the Animated Dead (2021) CinemaniaHDD.Net
    Encoded date                : UTC 2021-10-10 05:28:32
    Writing application         : mkvmerge v56.1.0 ('My Friend') 64-bit
    Writing library             : libebml v1.4.2 + libmatroska v1.6.4
    Attachments                 : CINEMANIAHD.png

    Video
    ID                          : 1
    ID in the original source m : 4113 (0x1011)
    Format                      : AVC
    Format/Info                 : Advanced Video Codec
    Format profile              : High@L4.1
    Format settings             : CABAC / 4 Ref Frames
    Format settings, CABAC      : Yes
    Format settings, Reference  : 4 frames
    Codec ID                    : V_MPEG4/ISO/AVC
    Duration                    : 1 h 10 min
    Bit rate mode               : Variable
    Bit rate                    : 14.7 Mb/s
    Maximum bit rate            : 38.0 Mb/s
    Width                       : 1 920 pixels
    Height                      : 1 080 pixels
    Display aspect ratio        : 16:9
    Frame rate mode             : Constant
    Frame rate                  : 23.976 (24000/1001) FPS
    Color space                 : YUV
    Chroma subsampling          : 4:2:0
    Bit depth                   : 8 bits
    Scan type                   : Progressive
    Bits/(Pixel*Frame)          : 0.296
    Stream size                 : 7.27 GiB (78%)
    Title                       : REMUX HD1080p [CinemaniaHDD]
    Default                     : Yes
    Forced                      : Yes
    Original source medium      : Blu-ray

    Audio #1
    ID                          : 2
    ID in the original source m : 4355 (0x1103)
    Format                      : AC-3
    Format/Info                 : Audio Coding 3
    Commercial name             : Dolby Digital
    Codec ID                    : A_AC3
    Duration                    : 1 h 10 min
    Bit rate mode               : Constant
    Bit rate                    : 640 kb/s
    Channel(s)                  : 6 channels
    Channel layout              : L R C LFE Ls Rs
    Sampling rate               : 48.0 kHz
    Frame rate                  : 31.250 FPS (1536 SPF)
    Compression mode            : Lossy
    Stream size                 : 324 MiB (3%)
    Title                       : Español Latino [CinemaniaHDD]
    Language                    : Spanish
    Service kind                : Complete Main
    Default                     : Yes
    Forced                      : Yes
    Original source medium      : Blu-ray

    Audio #2
    ID                          : 3
    ID in the original source m : 4352 (0x1100)
    Format                      : DTS XLL
    Format/Info                 : Digital Theater Systems
    Commercial name             : DTS-HD Master Audio
    Codec ID                    : A_DTS
    Duration                    : 1 h 10 min
    Bit rate mode               : Variable
    Bit rate                    : 3 446 kb/s
    Channel(s)                  : 6 channels
    Channel layout              : C L R Ls Rs LFE
    Sampling rate               : 48.0 kHz
    Frame rate                  : 93.750 FPS (512 SPF)
    Bit depth                   : 24 bits
    Compression mode            : Lossless
    Stream size                 : 1.70 GiB (18%)
    Title                       : Ingles [CinemaniaHDD]
    Language                    : English
    Default                     : No
    Forced                      : No
    Original source medium      : Blu-ray

    Text #1
    ID                          : 4
    ID in the original source m : 4615 (0x1207)
    Format                      : PGS
    Muxing mode                 : zlib
    Codec ID                    : S_HDMV/PGS
    Codec ID/Info               : Picture based subtitle format used on BDs/HD-DVDs
    Duration                    : 55 min 30 s
    Bit rate                    : 570 b/s
    Count of elements           : 22
    Stream size                 : 232 KiB (0%)
    Title                       : Forzados-PGS [CinemaniaHDD]
    Language                    : Spanish
    Default                     : No
    Forced                      : No
    Original source medium      : Blu-ray

    Text #2
    ID                          : 5
    ID in the original source m : 4612 (0x1204)
    Format                      : PGS
    Muxing mode                 : zlib
    Codec ID                    : S_HDMV/PGS
    Codec ID/Info               : Picture based subtitle format used on BDs/HD-DVDs
    Duration                    : 1 h 9 min
    Bit rate                    : 29.5 kb/s
    Count of elements           : 1500
    Stream size                 : 14.7 MiB (0%)
    Title                       : Español-PGS [CinemaniaHDD]
    Language                    : Spanish
    Default                     : No
    Forced                      : No
    Original source medium      : Blu-ray

    Text #3
    ID                          : 6
    ID in the original source m : 4608 (0x1200)
    Format                      : PGS
    Muxing mode                 : zlib
    Codec ID                    : S_HDMV/PGS
    Codec ID/Info               : Picture based subtitle format used on BDs/HD-DVDs
    Duration                    : 1 h 8 min
    Bit rate                    : 39.4 kb/s
    Count of elements           : 1870
    Stream size                 : 19.5 MiB (0%)
    Title                       : Ingles-PGS [CinemaniaHDD]
    Language                    : English
    Default                     : No
    Forced                      : No
    Original source medium      : Blu-ray

    Text #4
    ID                          : 7
    Format                      : UTF-8
    Codec ID                    : S_TEXT/UTF8
    Codec ID/Info               : UTF-8 Plain Text
    Duration                    : 27 min 12 s
    Bit rate                    : 1 b/s
    Count of elements           : 10
    Stream size                 : 278 Bytes (0%)
    Title                       : Forzados-SRT [CinemaniaHDD]
    Language                    : Spanish
    Default                     : Yes
    Forced                      : Yes

    Text #5
    ID                          : 8
    Format                      : UTF-8
    Codec ID                    : S_TEXT/UTF8
    Codec ID/Info               : UTF-8 Plain Text
    Duration                    : 1 h 9 min
    Bit rate                    : 50 b/s
    Count of elements           : 749
    Stream size                 : 25.8 KiB (0%)
    Title                       : Español-SRT [CinemaniaHDD]
    Language                    : Spanish
    Default                     : No
    Forced                      : No

    Menu
    00:00:00.000                : Chapter 01
    00:05:40.256                : Chapter 02
    00:12:09.937                : Chapter 03
    00:20:54.336                : Chapter 04
    00:28:46.558                : Chapter 05
    00:37:53.896                : Chapter 06
    00:47:43.527                : Chapter 07
    00:57:33.366                : Chapter 08
    01:01:55.670                : Chapter 09

  • Peso: 9.30 GiB

Sinopsis

Descargar La Nueva Noche De Los Muertos Vivientes (2021) REMUX 1080p Latino. En Night of the Animated Dead, los hermanos Barbara y Johnny visitan la tumba de su padre en un cementerio remoto en Pensilvania cuando de repente son atacados por zombies. Barbara huye y se lleva. Remake Animado del clasico de culto de George A. Romero.

Ficha técnica

  • Titulo original: Night of the Animated Dead
  • Fecha de lanzamiento: 21-09-2021 (United States of America)
  • Director: Jason Axinn
  • Género: Animación, Remux, Terror

Video trailer de la película

Enlaces de descarga

Rip de Bluray

Descargar La Nueva Noche De Los Muertos Vivientes (2021) REMUX 1080p Latino




Aportes de DPeliculasHDmega la pass es:dpeliculashdmega.org Aportes de CinemaniaHD la pass es:cinemaniahdd.com
Guardado en : Animación , Remux , Terror

Películas relacionadas

descargar La Nueva Noche De Los Muertos Vivientes (2021) REMUX 1080p Latino Full 1080p 1080p gratis, La Nueva Noche De Los Muertos Vivientes (2021) REMUX 1080p Latino Full 1080p mega 1 link, La Nueva Noche De Los Muertos Vivientes (2021) REMUX 1080p Latino Full 1080p pelicula completa, descargar La Nueva Noche De Los Muertos Vivientes (2021) REMUX 1080p Latino Full 1080p gratis en mega.

La Nueva Noche De Los Muertos Vivientes (2021) REMUX 1080p Latino pelicula full hd, La Nueva Noche De Los Muertos Vivientes (2021) REMUX 1080p Latino mega latino, La Nueva Noche De Los Muertos Vivientes (2021) REMUX 1080p Latino 4k latino, La Nueva Noche De Los Muertos Vivientes (2021) REMUX 1080p Latino pelicula completa, La Nueva Noche De Los Muertos Vivientes (2021) REMUX 1080p Latino descargar gratis, descargar La Nueva Noche De Los Muertos Vivientes (2021) REMUX 1080p Latino pelicula latino, La Nueva Noche De Los Muertos Vivientes (2021) REMUX 1080p Latino 1 link mega, La Nueva Noche De Los Muertos Vivientes (2021) REMUX 1080p Latino 1 link google drive, La Nueva Noche De Los Muertos Vivientes (2021) REMUX 1080p Latino hd 1080p latino.
Comentarios 0