×

¿Problemas para descargar con Mozilla, EDGE? Deshabilita la opción "Abrir vinculos en una pestaña nueva" tal como lo muestra ésta imagen.

La Nueva Cenicienta: Superestrella (2021) WebDL 1080p Latino

244 vistas

Información de La Nueva Cenicienta: Superestrella (2021) WebDL 1080p Latino

Datos de la película

  • Calidad: WEBDL
  • Audio: Español Latino AC3 5.1 iTunes - Ingles AC3 5.1 iTunes
  • Subtitulos: Español Latino SRT- FORZADOS SRT
  • Resolución: 1920x1080p
  • Formato: MKV
  • Codec: H.264
  • Encoder: Melkor
  • Mediainfo: Clic para Mostrar Datos Ver
  • La Nueva Cenicienta Superestrella (2021) WebDL 1080p Latino.mkv
    Format                      : Matroska
    Format version              : Version 4
    File size                   : 4.07 GiB
    Duration                    : 1 h 40 min
    Overall bit rate            : 5 823 kb/s
    Movie name                  : A Cinderella Story Starstruck (2021) CinemaniaHDD.Net
    Encoded date                : UTC 2021-06-29 04:13:14
    Writing application         : mkvmerge v56.1.0 ('My Friend') 64-bit
    Writing library             : libebml v1.4.2 + libmatroska v1.6.4
    Attachments                 : CINEMANIAHD.png

    Video
    ID                          : 1
    Format                      : AVC
    Format/Info                 : Advanced Video Codec
    Format profile              : High@L4
    Format settings             : CABAC / 4 Ref Frames
    Format settings, CABAC      : Yes
    Format settings, Reference  : 4 frames
    Codec ID                    : V_MPEG4/ISO/AVC
    Duration                    : 1 h 40 min
    Bit rate                    : 5 052 kb/s
    Width                       : 1 920 pixels
    Height                      : 1 080 pixels
    Display aspect ratio        : 16:9
    Frame rate mode             : Constant
    Frame rate                  : 23.976 (24000/1001) FPS
    Color space                 : YUV
    Chroma subsampling          : 4:2:0
    Bit depth                   : 8 bits
    Scan type                   : Progressive
    Bits/(Pixel*Frame)          : 0.102
    Stream size                 : 3.53 GiB (87%)
    Title                       : WEB HD1080p [CinemaniaHDD]
    Default                     : Yes
    Forced                      : Yes
    Color range                 : Limited
    Color primaries             : BT.709
    Transfer characteristics    : BT.709
    Matrix coefficients         : BT.709

    Audio #1
    ID                          : 2
    Format                      : AC-3
    Format/Info                 : Audio Coding 3
    Commercial name             : Dolby Digital
    Codec ID                    : A_AC3
    Duration                    : 1 h 40 min
    Bit rate mode               : Constant
    Bit rate                    : 384 kb/s
    Channel(s)                  : 6 channels
    Channel layout              : L R C LFE Ls Rs
    Sampling rate               : 48.0 kHz
    Frame rate                  : 31.250 FPS (1536 SPF)
    Compression mode            : Lossy
    Stream size                 : 275 MiB (7%)
    Title                       : Español Latino [CinemaniaHDD]
    Language                    : Spanish
    Service kind                : Complete Main
    Default                     : Yes
    Forced                      : No

    Audio #2
    ID                          : 3
    Format                      : AC-3
    Format/Info                 : Audio Coding 3
    Commercial name             : Dolby Digital
    Codec ID                    : A_AC3
    Duration                    : 1 h 40 min
    Bit rate mode               : Constant
    Bit rate                    : 384 kb/s
    Channel(s)                  : 6 channels
    Channel layout              : L R C LFE Ls Rs
    Sampling rate               : 48.0 kHz
    Frame rate                  : 31.250 FPS (1536 SPF)
    Compression mode            : Lossy
    Stream size                 : 275 MiB (7%)
    Title                       : Ingles [CinemaniaHDD]
    Language                    : English
    Service kind                : Complete Main
    Default                     : No
    Forced                      : No

    Text #1
    ID                          : 4
    Format                      : UTF-8
    Codec ID                    : S_TEXT/UTF8
    Codec ID/Info               : UTF-8 Plain Text
    Duration                    : 45 min 15 s
    Bit rate                    : 0 b/s
    Count of elements           : 6
    Stream size                 : 200 Bytes (0%)
    Title                       : Forzados-SRT [CinemaniaHDD]
    Language                    : Spanish
    Default                     : Yes
    Forced                      : Yes

    Text #2
    ID                          : 5
    Format                      : UTF-8
    Codec ID                    : S_TEXT/UTF8
    Codec ID/Info               : UTF-8 Plain Text
    Duration                    : 1 h 39 min
    Bit rate                    : 68 b/s
    Count of elements           : 1669
    Stream size                 : 49.7 KiB (0%)
    Title                       : Español-SRT [CinemaniaHDD]
    Language                    : Spanish
    Default                     : No
    Forced                      : No

    Text #3
    ID                          : 6
    Format                      : UTF-8
    Codec ID                    : S_TEXT/UTF8
    Codec ID/Info               : UTF-8 Plain Text
    Duration                    : 1 h 38 min
    Bit rate                    : 71 b/s
    Count of elements           : 1911
    Stream size                 : 51.4 KiB (0%)
    Title                       : Ingles-SRT [CinemaniaHDD]
    Language                    : English
    Default                     : No
    Forced                      : No

    Menu
    00:00:00.000                : 1
    00:07:28.531                : 2
    00:13:27.932                : 3
    00:22:13.082                : 4
    00:27:40.617                : 5
    00:34:11.841                : 6
    00:41:23.898                : 7
    00:47:40.816                : 8
    00:53:01.261                : 9
    00:57:54.429                : 10
    01:02:35.501                : 11
    01:08:54.213                : 12
    01:12:36.143                : 13
    01:17:37.986                : 14
    01:22:23.396                : 15
    01:27:29.452                : 16

  • Peso: 4.07 GiB

Sinopsis

Descargar La Nueva Cenicienta: Superestrella (2021) WebDL 1080p Latino. Finley Tremaine, una campesina de un pueblo pequeño, anhela abrir sus alas y elevarse a lo más alto de la farándula. Cuando un equipo de filmación de Hollywood llega a su pueblo tranquilo, ella está decidida a conseguir un papel en la producción y llama la atención del guapo protagonista, Jackson Stone. Desafortunadamente, una audición fallida la obliga a cambiar de curso. Ahora, disfrazada de la vaquera «Huck», Finley por fin tiene su gran oportunidad. Pero, ¿podrá guardar el secreto y ocultarles la verdad incluso a su malvada madrastra y sus hermanastras ladinas?

Ficha técnica

  • Titulo original: A Cinderella Story: Starstruck
  • Fecha de lanzamiento: 29-06-2021 (United States of America)
  • Director: Michelle Johnston
  • Género: Comedia, Romance

Video trailer de la película

Enlaces de descarga

Rip de Bluray

Descargar La Nueva Cenicienta: Superestrella (2021) WebDL 1080p Latino




Aportes de DPeliculasHDmega la pass es:dpeliculashdmega.org Aportes de CinemaniaHD la pass es:cinemaniahdd.com
Guardado en : Comedia , Romance

Películas relacionadas

  • Zola (2020) HD 1080p Latino

    Zola (2020) HD 1080p Latino

    2020
    Zola (2020) HD 1080p Latino

    1h 26m 2020

    Descargar Zola (2020) HD 1080p Latino. Una camarera accede a acompañar a una bailarina exótica, su...

    Director: Sheri Davani

    Género: Comedia

    Actores: Ts Madison

  • Zola (2020) PLACEBO Full HD 1080p Latino

    Zola (2020) PLACEBO Full HD 1080p Latino

    2020
    Zola (2020) PLACEBO Full HD 1080p Latino

    1h 26m 2020

    Descargar Zola (2020) PLACEBO Full HD 1080p Latino. Una camarera accede a acompañar a una bailarina...

    Director: Sheri Davani

    Género: Comedia

    Actores: Ts Madison

  • Zola (2020) REMUX 1080p Latino

    Zola (2020) REMUX 1080p Latino

    2020
    Zola (2020) REMUX 1080p Latino

    1h 26m 2020

    Descargar Zola (2020) REMUX 1080p Latino. Una camarera accede a acompañar a una bailarina exótica,...

    Director: Sheri Davani

    Género: Comedia

    Actores: Ts Madison

descargar La Nueva Cenicienta: Superestrella (2021) WebDL 1080p Latino WEBDL 1080p gratis, La Nueva Cenicienta: Superestrella (2021) WebDL 1080p Latino WEBDL mega 1 link, La Nueva Cenicienta: Superestrella (2021) WebDL 1080p Latino WEBDL pelicula completa, descargar La Nueva Cenicienta: Superestrella (2021) WebDL 1080p Latino WEBDL gratis en mega.

La Nueva Cenicienta: Superestrella (2021) WebDL 1080p Latino pelicula full hd, La Nueva Cenicienta: Superestrella (2021) WebDL 1080p Latino mega latino, La Nueva Cenicienta: Superestrella (2021) WebDL 1080p Latino 4k latino, La Nueva Cenicienta: Superestrella (2021) WebDL 1080p Latino pelicula completa, La Nueva Cenicienta: Superestrella (2021) WebDL 1080p Latino descargar gratis, descargar La Nueva Cenicienta: Superestrella (2021) WebDL 1080p Latino pelicula latino, La Nueva Cenicienta: Superestrella (2021) WebDL 1080p Latino 1 link mega, La Nueva Cenicienta: Superestrella (2021) WebDL 1080p Latino 1 link google drive, La Nueva Cenicienta: Superestrella (2021) WebDL 1080p Latino hd 1080p latino.
Comentarios 0