×

¿Problemas para descargar con Mozilla, EDGE? Deshabilita la opción "Abrir vinculos en una pestaña nueva" tal como lo muestra ésta imagen.

La noche más larga (2022) Temporada 1 NF WEB-DL 1080p Castellano

528 vistas

Información de La noche más larga (2022) Temporada 1 NF WEB-DL 1080p Castellano

Datos de la película

  • Calidad: WEBDL
  • Audio: Español España AC3 5.1 Netflix
  • Subtitulos: No
  • Resolución: 1920x1080p
  • Formato: MKV
  • Codec: H.264
  • Encoder: Melkor
  • Mediainfo: Clic para Mostrar Datos Ver
  • La Noche Mas Larga S01E01 (2022) NF WebDL 1080p Latino.mkv
    Format                      : Matroska
    Format version              : Version 4
    File size                   : 1.10 GiB
    Duration                    : 48 min 58 s
    Overall bit rate mode       : Variable
    Overall bit rate            : 3 209 kb/s
    Movie name                  : La Noche Mas Larga S01E01 CinemaniaHDD.Net
    Encoded date                : UTC 2022-07-09 05:01:07
    Writing application         : mkvmerge v56.1.0 ('My Friend') 64-bit
    Writing library             : libebml v1.4.2 + libmatroska v1.6.4
    Attachments                 : CINEMANIAHD.png

    Video
    ID                          : 1
    Format                      : AVC
    Format/Info                 : Advanced Video Codec
    Format profile              : Main@L4
    Format settings             : CABAC / 3 Ref Frames
    Format settings, CABAC      : Yes
    Format settings, Reference  : 3 frames
    Codec ID                    : V_MPEG4/ISO/AVC
    Duration                    : 48 min 58 s
    Bit rate mode               : Variable
    Bit rate                    : 2 440 kb/s
    Nominal bit rate            : 2 740 kb/s
    Maximum bit rate            : 4 110 kb/s
    Width                       : 1 920 pixels
    Height                      : 1 080 pixels
    Display aspect ratio        : 16:9
    Frame rate mode             : Constant
    Frame rate                  : 24.000 FPS
    Color space                 : YUV
    Chroma subsampling          : 4:2:0
    Bit depth                   : 8 bits
    Scan type                   : Progressive
    Bits/(Pixel*Frame)          : 0.049
    Stream size                 : 855 MiB (76%)
    Title                       : WEB HD1080p [CinemaniaHDD]
    Writing library             : x264 core 148 r2727 7d026e8
    Encoding settings           : cabac=1 / ref=3 / deblock=1:0:0 / analyse=0x1:0x111 / me=umh / subme=10 / psy=1 / psy_rd=1.00:0.00 / mixed_ref=1 / me_range=24 / chroma_me=1 / trellis=2 / 8x8dct=0 / cqm=0 / deadzone=21,11 / fast_pskip=1 / chroma_qp_offset=-2 / threads=8 / lookahead_threads=1 / sliced_threads=0 / nr=0 / decimate=1 / interlaced=0 / bluray_compat=0 / stitchable=1 / constrained_intra=0 / bframes=2 / b_pyramid=0 / b_adapt=2 / b_bias=0 / direct=3 / weightb=1 / open_gop=0 / weightp=2 / keyint=250 / keyint_min=24 / scenecut=0 / intra_refresh=0 / rc_lookahead=48 / rc=2pass / mbtree=1 / bitrate=2740 / ratetol=1.0 / qcomp=0.50 / qpmin=6 / qpmax=51 / qpstep=4 / cplxblur=20.0 / qblur=0.5 / vbv_maxrate=4110 / vbv_bufsize=5480 / nal_hrd=vbr / filler=0 / ip_ratio=1.40 / aq=1:1.00
    Default                     : Yes
    Forced                      : Yes

    Audio
    ID                          : 2
    Format                      : E-AC-3 JOC
    Format/Info                 : Enhanced AC-3 with Joint Object Coding
    Commercial name             : Dolby Digital Plus with Dolby Atmos
    Codec ID                    : A_EAC3
    Duration                    : 48 min 58 s
    Bit rate mode               : Constant
    Bit rate                    : 768 kb/s
    Channel(s)                  : 6 channels
    Channel layout              : L R C LFE Ls Rs
    Sampling rate               : 48.0 kHz
    Frame rate                  : 31.250 FPS (1536 SPF)
    Compression mode            : Lossy
    Stream size                 : 269 MiB (24%)
    Title                       : Español Castellano [CinemaniaHDD]
    Language                    : Spanish
    Service kind                : Complete Main
    Default                     : Yes
    Forced                      : Yes
    Complexity index            : 16
    Number of dynamic objects   : 15
    Bed channel count           : 1 channel
    Bed channel configuration   : LFE

  • Peso: 1.1 GiB Aprox C/U. - 5.97 GiB - 6 Chapters

Sinopsis

Descargar La noche más larga (2022) Temporada 1 NF WEB-DL 1080p Castellano. La noche más larga es la noche del 24 de diciembre: un grupo de hombres armados rodean la prisión Monte Baruca y cortan las comunicaciones con el exterior. Su objetivo: capturar a Simón Lago (Luis Callejo), un peligroso asesino en serie. Si los guardias lo entregan, el asalto acabará en cuestión de minutos. Pero Hugo (Alberto Ammann), el director de la prisión, se niega a obedecer y se prepara para resistir el ataque.

Nota: los Archivos Dirán «Latino» en el nombre pero es «Castellano» Perdon por el inconveniente 😀

Ficha técnica

Video trailer de la película

Enlaces de descarga

Rip de Bluray

Descargar La noche más larga (2022) Temporada 1 NF WEB-DL 1080p Castellano




Aportes de DPeliculasHDmega la pass es:dpeliculashdmega.org Aportes de CinemaniaHD la pass es:cinemaniahdd.com
Guardado en : Crimen , Netflix , Series

Películas relacionadas

  • Blonde (2022) NF WEB-DL 1080p Latino

    Blonde (2022) NF WEB-DL 1080p Latino

    2022
    Blonde (2022) NF WEB-DL 1080p Latino

    2h 46m 2022

    Descargar Blonde (2022) NF WEB-DL 1080p Latino. Basada en el bestseller de la cinco veces finalista al...

    Director: Kristin Bree Calabrese

    Género: Drama

    Actores: Xavier Samuel

  • Star Wars: Andor (2022) Temporada 1 WEB-DL 1080p Latino

    Star Wars: Andor (2022) Temporada 1 WEB-DL 1080p Latino

    2022
    Star Wars: Andor (2022) Temporada 1 WEB-DL 1080p Latino

    0h 0m 2022

    Descargar Star Wars: Andor (2022) Temporada 1 WEB-DL 1080p Latino. Serie precuela de 'Star Wars; Rogue...

    Director: Tony Gilroy

    Género: Action & Adventure

    Actores: Stellan Skarsgård

  • Borrego: Sal Del Camino (2022) HD 1080p Latino

    Borrego: Sal Del Camino (2022) HD 1080p Latino

    2022
    Borrego: Sal Del Camino (2022) HD 1080p Latino

    1h 42m 2022

    Descargar Borrego: Sal Del Camino (2022) HD 1080p Latino. Una joven botánica se traslada a un pequeño...

    Director: Jesse Harris

    Género: Crimen

    Actores: Olivia Trujillo

descargar La noche más larga (2022) Temporada 1 NF WEB-DL 1080p Castellano WEBDL 1080p gratis, La noche más larga (2022) Temporada 1 NF WEB-DL 1080p Castellano WEBDL mega 1 link, La noche más larga (2022) Temporada 1 NF WEB-DL 1080p Castellano WEBDL serie completa, descargar La noche más larga (2022) Temporada 1 NF WEB-DL 1080p Castellano WEBDL gratis en mega.

La noche más larga (2022) Temporada 1 NF WEB-DL 1080p Castellano pelicula full hd, La noche más larga (2022) Temporada 1 NF WEB-DL 1080p Castellano mega latino, La noche más larga (2022) Temporada 1 NF WEB-DL 1080p Castellano 4k latino, La noche más larga (2022) Temporada 1 NF WEB-DL 1080p Castellano pelicula completa, La noche más larga (2022) Temporada 1 NF WEB-DL 1080p Castellano descargar gratis, descargar La noche más larga (2022) Temporada 1 NF WEB-DL 1080p Castellano pelicula latino, La noche más larga (2022) Temporada 1 NF WEB-DL 1080p Castellano 1 link mega, La noche más larga (2022) Temporada 1 NF WEB-DL 1080p Castellano 1 link google drive, La noche más larga (2022) Temporada 1 NF WEB-DL 1080p Castellano hd 1080p latino.
Comentarios 0