×

¿Problemas para descargar con Mozilla, EDGE? Deshabilita la opción "Abrir vinculos en una pestaña nueva" tal como lo muestra ésta imagen.

La negociadora (2020) Temporada 1 CV WEB-DL 1080p Latino

314 vistas

Información de La negociadora (2020) Temporada 1 CV WEB-DL 1080p Latino

Datos de la película

  • Calidad: WEBDL
  • Audio: Español Latino AC3 2.0
  • Subtitulos: No
  • Resolución: 1920x1080
  • Formato: MKV
  • Codec: H.264
  • Encoder: cinemaniahdd
  • Mediainfo: Clic para Mostrar Datos Ver
  • La Negociadora T01E01 CV WEB-DL 1080p Latino [CNMNHDD].mkv
    Format                      : Matroska
    Format version              : Version 4
    File size                   : 1.48 GiB
    Duration                    : 50 min 55 s
    Overall bit rate mode       : Constant
    Overall bit rate            : 4 152 kb/s
    Movie name                  : La Negociadora T01E01 - CinemaniaHDD.Net
    Encoded date                : UTC 2021-02-12 00:15:31
    Writing application         : mkvmerge v51.0.0 ('I Wish') 64-bit
    Writing library             : libebml v1.4.0 + libmatroska v1.6.2

    Video
    ID                          : 1
    Format                      : AVC
    Format/Info                 : Advanced Video Codec
    Format profile              : High@L4
    Format settings             : CABAC / 2 Ref Frames
    Format settings, CABAC      : Yes
    Format settings, Reference  : 2 frames
    Format settings, GOP        : M=1, N=60
    Codec ID                    : V_MPEG4/ISO/AVC
    Duration                    : 50 min 55 s
    Bit rate mode               : Constant
    Bit rate                    : 4 000 kb/s
    Width                       : 1 920 pixels
    Height                      : 1 080 pixels
    Display aspect ratio        : 16:9
    Frame rate mode             : Constant
    Frame rate                  : 23.976 (24000/1001) FPS
    Color space                 : YUV
    Chroma subsampling          : 4:2:0
    Bit depth                   : 8 bits
    Scan type                   : Progressive
    Bits/(Pixel*Frame)          : 0.080
    Stream size                 : 1.39 GiB (94%)
    Title                       : CinemaniaHDD
    Default                     : Yes
    Forced                      : No
    Color range                 : Limited
    Color primaries             : BT.709
    Transfer characteristics    : BT.709
    Matrix coefficients         : BT.709

    Audio
    ID                          : 2
    Format                      : AC-3
    Format/Info                 : Audio Coding 3
    Commercial name             : Dolby Digital
    Codec ID                    : A_AC3
    Duration                    : 50 min 55 s
    Bit rate mode               : Constant
    Bit rate                    : 256 kb/s
    Channel(s)                  : 2 channels
    Channel layout              : L R
    Sampling rate               : 44.1 kHz
    Frame rate                  : 28.711 FPS (1536 SPF)
    Compression mode            : Lossy
    Stream size                 : 93.2 MiB (6%)
    Title                       : Español latino [CinemaniaHDD]
    Language                    : Spanish
    Service kind                : Complete Main
    Default                     : Yes
    Forced                      : No

     

  • Peso: 1.48 GiB Aprox ---- 17.3 GiB in 12 Chapters.

Sinopsis

12 episodios. Eugenia es una joven especialista en negociaciones antisecuestro, que irónicamente es hija de un peligroso secuestrador.

Ficha técnica

Video trailer de la película

Enlaces de descarga

Rip de Bluray

Descargar La negociadora (2020) Temporada 1 CV WEB-DL 1080p Latino




Aportes de DPeliculasHDmega la pass es:dpeliculashdmega.org Aportes de CinemaniaHD la pass es:cinemaniahdd.com

Películas relacionadas

descargar La negociadora (2020) Temporada 1 CV WEB-DL 1080p Latino WEBDL 1080p gratis, La negociadora (2020) Temporada 1 CV WEB-DL 1080p Latino WEBDL mega 1 link, La negociadora (2020) Temporada 1 CV WEB-DL 1080p Latino WEBDL serie completa, descargar La negociadora (2020) Temporada 1 CV WEB-DL 1080p Latino WEBDL gratis en mega.

La negociadora (2020) Temporada 1 CV WEB-DL 1080p Latino pelicula full hd, La negociadora (2020) Temporada 1 CV WEB-DL 1080p Latino mega latino, La negociadora (2020) Temporada 1 CV WEB-DL 1080p Latino 4k latino, La negociadora (2020) Temporada 1 CV WEB-DL 1080p Latino pelicula completa, La negociadora (2020) Temporada 1 CV WEB-DL 1080p Latino descargar gratis, descargar La negociadora (2020) Temporada 1 CV WEB-DL 1080p Latino pelicula latino, La negociadora (2020) Temporada 1 CV WEB-DL 1080p Latino 1 link mega, La negociadora (2020) Temporada 1 CV WEB-DL 1080p Latino 1 link google drive, La negociadora (2020) Temporada 1 CV WEB-DL 1080p Latino hd 1080p latino.
Comentarios 0